Loading...
Error

(Церковная музыка и церковные хоры (lossless).) "Валаамское монашеское правило". Регент братского хора Валаамского монастыря иеродиакон Герман (Рябцев). - 1999, APE (image + .cue), lossless

Ответить на тему
Статистика раздачи
Скачали: [ 8 ]
   
 
Автор Сообщение

СЕРГУЛЕТ

Стаж: 8 лет 3 месяца

Сообщений: 2639

Откуда: LA ROMANA

Dominicanrep

post 19-Окт-2009 21:41

[Цитировать] 

"Валаамское монашеское правило". Регент братского хора Валаамского монастыря иеродиакон Герман (Рябцев).

pic
Страна: Россия. Продюсерский центр Игоря Матвиенко
Жанр: Церковная музыка и церковные хоры (lossless).
Год выпуска: 1999
Формат: APE (image + .cue)
Битрейт аудио: lossless
Продолжительность: 01:02:22
Трэклист:
1. Три канона
Иисусу Сладчайшему, Божией Матери, Ангелу Хранителю
2. С присовокуплением акафиста Божией Матери
3. Продолжение канонов
4. Молитвы после канонов
Дополнительная информация: Чтение и пение Валаамского монашеского правила проникнуты особым молитвенным настроением, характерным для повседневного иноческого жития.

Вполне может случиться так, что слушая этот замечательный маленький хор, вы вместе с ним начнете петь: «Иисусе Сладчайший, спаси нас грешных», «Пресвятая Владычице Богородице, спаси нас грешных».
EAC log
Exact Audio Copy V0.99 prebeta 5 from 4. May 2009

Отчёт EAC об извлечении, выполненном 19. октября 2009, 20:51

Иеродиакон Герман (Рябцев) / Валаамское монашеское правило

Дисковод: ASUS BC-1205PT Adapter: 1 ID: 0

Режим чтения : Достоверность
Использование точного потока : Да
Отключение кэша аудио : Да
Использование указателей C2 : Нет

Коррекция смещения при чтении : 667
Способность читать области Lead-in и Lead-out : Нет
Заполнение пропущенных сэмплов тишиной : Да
Удаление блоков с тишиной в начале и конце : Нет
При вычислениях CRC использовались нулевые сэмплы : Да
Интерфейс : Встроенный Win32-интерфейс для Win NT/2000

Выходной формат : Внутренние WAV-операции
Формат сэмплов : 44.100 Гц; 16 бит; стерео

TOC извлечённого CD

Трек | Старт | Длительность | Начальный сектор | Конечный сектор
---------------------------------------------------------------------
1 | 0:00.00 | 23:31.63 | 0 | 105887
2 | 23:31.63 | 22:51.04 | 105888 | 208716
3 | 46:22.67 | 12:29.13 | 208717 | 264904
4 | 58:52.05 | 3:28.58 | 264905 | 280562

Характеристики диапазона извлечения и сообщения об ошибках

Выбранный диапазон

Имя файла C:\Иеродиакон Герман (Рябцев) - Валаамское монашеское правило.wav

Пиковый уровень 95.9 %
Качество диапазона 100.0 %
CRC копии 85A13C2E
Копирование... OK

Ошибок не произошло
Конец отчёта
Download

Войдите для скачивания торрент-файла

Как скачивать  ·   Правила трекера

[Профиль]  [ЛС] 

westpoint349

post 27-Сен-2011 10:27 (спустя 1 год 11 месяцев)

[Цитировать] 

Скорости дайте пожалуйста
 

Artem-ka

Стаж: 6 лет 5 месяцев

Сообщений: 10

post 03-Дек-2011 02:57 (спустя 2 месяца 5 дней)

[Цитировать] 

Люди, газку поддайте пожалуйста!
[Профиль]  [ЛС] 

partyzan

Стаж: 4 года 11 месяцев

Сообщений: 6

Ukraine

post 18-Сен-2012 11:31 (спустя 9 месяцев)

[Цитировать] 

люди станьте на раздачу!!!!!!! Спаси Господи!
[Профиль]  [ЛС] 

N12345

Стаж: 5 лет 4 месяца

Сообщений: 4

Russia

post 19-Окт-2012 14:42 (спустя 1 месяц 1 день)

[Цитировать] 

СЕРГУЛЕТ, Здравствуйте!

У меня (правда не на CD диске, а в MP3 файле):

Валаамское монашеское правило

Записано на Валааме летом 1996 года, при игумене Панкратии.

У Вас же стоит 1999


Последний раз редактировалось: N12345 (2015-07-31 19:53), всего редактировалось 1 раз
[Профиль]  [ЛС] 

4x4Runner

Стаж: 4 года 2 месяца

Сообщений: 15

post 03-Мар-2014 12:19 (спустя 1 год 4 месяца)

[Цитировать] 

Большое спасибо....
[Профиль]  [ЛС] 

serpantin04

Стаж: 5 лет 6 месяцев

Сообщений: 84

Belarus

post 15-Июн-2014 13:12 (спустя 3 месяца 12 дней)

[Цитировать] 

Большое спасибо.
[Профиль]  [ЛС] 

Сергей Скорбовенко

Стаж: 2 года 8 месяцев

Сообщений: 1

Russia

post 06-Сен-2014 20:50 (спустя 2 месяца 21 день)

[Цитировать] 

Спасибо!!!
[Профиль]  [ЛС] 

_sunday

Стаж: 1 год 7 месяцев

Сообщений: 5

Serbia

post 19-Окт-2015 01:33 (спустя 1 год 1 месяц)

[Цитировать] 

Спасибо!!!
[Профиль]  [ЛС] 

vika010288

Стаж: 7 лет 10 месяцев

Сообщений: 459

Georgia

post 21-Окт-2015 23:14 (спустя 2 дня 21 час)

[Цитировать] 

Большое спасибо !
[Профиль]  [ЛС] 

Михаил_Б

Стаж: 8 лет 3 месяца

Сообщений: 84

Russia

post 17-Дек-2015 14:04 (спустя 1 месяц 26 дней)

[Цитировать] 

Спаси Господи
[Профиль]  [ЛС] 
Показать сообщения:    
Ответить на тему

Текущее время: 26-Май 20:38

Часовой пояс: GMT + 4



Вы не можете начинать темы
Вы не можете отвечать на сообщения
Вы не можете редактировать свои сообщения
Вы не можете удалять свои сообщения
Вы не можете голосовать в опросах
Вы не можете прикреплять файлы к сообщениям
Вы не можете скачивать файлы