Loading...
Error

(Церковная музыка и церковные хоры (lossless).) "Благословенная Оптина". Братский хор Свято-Введенского монастыря Оптиной Пустыни. - 2008, APE (image + .cue), lossless

Страницы:  1, 2  След.

Ответить на тему
Статистика раздачи
   
 
Автор Сообщение

СЕРГУЛЕТ

Стаж: 10 лет

Сообщений: 2637

Откуда: LA ROMANA

Dominicanrep

post 27-Дек-2009 12:26

[Цитировать] 

"Благословенная Оптина". Братский хор Свято-Введенского монастыря Оптиной Пустыни.

pic
Страна: Россия. Братство сщмч. Ермогена & Свято-Введенская Оптина Пустынь.
Жанр: Церковная музыка и церковные хоры (lossless).
Год выпуска: 2008
Формат: APE (image + .cue)
Битрейт аудио: lossless
Продолжительность: 01:09:12
Трэклист:
1. Благослови, душе, моя Господа...
2. Блажен муж...
3. Богородице, Дево...
4. Честнейшую Херувим...
5. Свете Тихий...
6. Херувимская.
7. Яко да Царя...
8. Псалом 1.
9. Псалом 2.
10. Псалом 3.
11. Псалом 4.
12. Псалом 5.
13. Псалом 6.
14. Псалом 7.
15. Псалом 8.
16. Хвалите Имя Господне...
17. Кирие Элейсон..
18. Богородице Дево, радуйся..
19. С нами Бог...
20. Ныне отпущаеши....
21. Единородный Сыне...
22. Се Жених грядет в полунощи...
23. Величание прп. Амвросию...
24. Тропарь Оптинским Старцам.
25. Взбранной Воеводе...
26. Достойно есть...
27. Тропарь Казанской иконе Божией Матери.
28. Тропарь Введению во Храм Богородицы.
Обложки+Содержание
picpic
EAC log
Exact Audio Copy V0.99 prebeta 5 from 4. May 2009

Отчёт EAC об извлечении, выполненном 25. декабря 2009, 7:50

- / Благословенная Оптина

Дисковод: ASUS BC-1205PT Adapter: 1 ID: 0

Режим чтения : Достоверность
Использование точного потока : Да
Отключение кэша аудио : Да
Использование указателей C2 : Нет

Коррекция смещения при чтении : 667
Способность читать области Lead-in и Lead-out : Нет
Заполнение пропущенных сэмплов тишиной : Да
Удаление блоков с тишиной в начале и конце : Нет
При вычислениях CRC использовались нулевые сэмплы : Да
Интерфейс : Встроенный Win32-интерфейс для Win NT/2000

Выходной формат : Внутренние WAV-операции
Формат сэмплов : 44.100 Гц; 16 бит; стерео

TOC извлечённого CD

Трек | Старт | Длительность | Начальный сектор | Конечный сектор
---------------------------------------------------------------------
1 | 0:00.00 | 6:31.73 | 0 | 29397
2 | 6:31.73 | 4:27.60 | 29398 | 49482
3 | 10:59.58 | 1:18.01 | 49483 | 55333
4 | 12:17.59 | 5:27.04 | 55334 | 79862
5 | 17:44.63 | 2:18.33 | 79863 | 90245
6 | 20:03.21 | 3:08.62 | 90246 | 104407
7 | 23:12.08 | 1:54.24 | 104408 | 112981
8 | 25:06.32 | 2:38.00 | 112982 | 124831
9 | 27:44.32 | 3:20.50 | 124832 | 139881
10 | 31:05.07 | 1:47.25 | 139882 | 147931
11 | 32:52.32 | 2:19.45 | 147932 | 158401
12 | 35:12.02 | 3:04.50 | 158402 | 172251
13 | 38:16.52 | 3:08.10 | 172252 | 186361
14 | 41:24.62 | 4:29.15 | 186362 | 206551
15 | 45:54.02 | 1:54.60 | 206552 | 215161
16 | 47:48.62 | 2:05.66 | 215162 | 224602
17 | 49:54.53 | 1:38.46 | 224603 | 231998
18 | 51:33.24 | 0:48.53 | 231999 | 235651
19 | 52:22.02 | 5:38.23 | 235652 | 261024
20 | 58:00.25 | 1:22.47 | 261025 | 267221
21 | 59:22.72 | 1:59.13 | 267222 | 276159
22 | 61:22.10 | 3:04.60 | 276160 | 290019
23 | 64:26.70 | 0:49.11 | 290020 | 293705
24 | 65:16.06 | 0:42.24 | 293706 | 296879
25 | 65:58.30 | 1:07.56 | 296880 | 301960
26 | 67:06.11 | 0:38.00 | 301961 | 304810
27 | 67:44.11 | 1:18.08 | 304811 | 310668
28 | 69:02.19 | 1:13.39 | 310669 | 316182

Характеристики диапазона извлечения и сообщения об ошибках

Выбранный диапазон

Имя файла C:\Благословенная Оптина.wav

Пиковый уровень 96.5 %
Качество диапазона 100.0 %
CRC копии 71FEEA8D
Копирование... OK

Ошибок не произошло

AccurateRip: сводка
Трек 1 нет в базе данных
Трек 2 нет в базе данных
Трек 3 нет в базе данных
Трек 4 нет в базе данных
Трек 5 нет в базе данных
Трек 6 нет в базе данных
Трек 7 нет в базе данных
Трек 8 нет в базе данных
Трек 9 нет в базе данных
Трек 10 нет в базе данных
Трек 11 нет в базе данных
Трек 12 нет в базе данных
Трек 13 нет в базе данных
Трек 14 нет в базе данных
Трек 15 нет в базе данных
Трек 16 нет в базе данных
Трек 17 нет в базе данных
Трек 18 нет в базе данных
Трек 19 нет в базе данных
Трек 20 нет в базе данных
Трек 21 нет в базе данных
Трек 22 нет в базе данных
Трек 23 нет в базе данных
Трек 24 нет в базе данных
Трек 25 нет в базе данных
Трек 26 нет в базе данных
Трек 27 нет в базе данных
Трек 28 нет в базе данных
Ни одного трека нет в базе AccurateRip

Конец отчёта

------------------------------------------------------------

Exact Audio Copy V0.99 prebeta 5 from 4. May 2009

Отчёт EAC об извлечении, выполненном 25. декабря 2009, 7:51

- / Благословенная Оптина

Дисковод: ASUS BC-1205PT Adapter: 1 ID: 0

Режим чтения : Достоверность
Использование точного потока : Да
Отключение кэша аудио : Да
Использование указателей C2 : Нет

Коррекция смещения при чтении : 667
Способность читать области Lead-in и Lead-out : Нет
Заполнение пропущенных сэмплов тишиной : Да
Удаление блоков с тишиной в начале и конце : Нет
При вычислениях CRC использовались нулевые сэмплы : Да
Интерфейс : Встроенный Win32-интерфейс для Win NT/2000

Выходной формат : Внутренние WAV-операции
Формат сэмплов : 44.100 Гц; 16 бит; стерео

TOC извлечённого CD

Трек | Старт | Длительность | Начальный сектор | Конечный сектор
---------------------------------------------------------------------
1 | 0:00.00 | 6:31.73 | 0 | 29397
2 | 6:31.73 | 4:27.60 | 29398 | 49482
3 | 10:59.58 | 1:18.01 | 49483 | 55333
4 | 12:17.59 | 5:27.04 | 55334 | 79862
5 | 17:44.63 | 2:18.33 | 79863 | 90245
6 | 20:03.21 | 3:08.62 | 90246 | 104407
7 | 23:12.08 | 1:54.24 | 104408 | 112981
8 | 25:06.32 | 2:38.00 | 112982 | 124831
9 | 27:44.32 | 3:20.50 | 124832 | 139881
10 | 31:05.07 | 1:47.25 | 139882 | 147931
11 | 32:52.32 | 2:19.45 | 147932 | 158401
12 | 35:12.02 | 3:04.50 | 158402 | 172251
13 | 38:16.52 | 3:08.10 | 172252 | 186361
14 | 41:24.62 | 4:29.15 | 186362 | 206551
15 | 45:54.02 | 1:54.60 | 206552 | 215161
16 | 47:48.62 | 2:05.66 | 215162 | 224602
17 | 49:54.53 | 1:38.46 | 224603 | 231998
18 | 51:33.24 | 0:48.53 | 231999 | 235651
19 | 52:22.02 | 5:38.23 | 235652 | 261024
20 | 58:00.25 | 1:22.47 | 261025 | 267221
21 | 59:22.72 | 1:59.13 | 267222 | 276159
22 | 61:22.10 | 3:04.60 | 276160 | 290019
23 | 64:26.70 | 0:49.11 | 290020 | 293705
24 | 65:16.06 | 0:42.24 | 293706 | 296879
25 | 65:58.30 | 1:07.56 | 296880 | 301960
26 | 67:06.11 | 0:38.00 | 301961 | 304810
27 | 67:44.11 | 1:18.08 | 304811 | 310668
28 | 69:02.19 | 1:13.39 | 310669 | 316182

Характеристики диапазона извлечения и сообщения об ошибках

Выбранный диапазон

Имя файла C:\Благословенная Оптина.wav

Пиковый уровень 96.5 %
Качество диапазона 100.0 %
CRC копии 71FEEA8D
Копирование... OK

Ошибок не произошло

AccurateRip: сводка
Трек 1 нет в базе данных
Трек 2 нет в базе данных
Трек 3 нет в базе данных
Трек 4 нет в базе данных
Трек 5 нет в базе данных
Трек 6 нет в базе данных
Трек 7 нет в базе данных
Трек 8 нет в базе данных
Трек 9 нет в базе данных
Трек 10 нет в базе данных
Трек 11 нет в базе данных
Трек 12 нет в базе данных
Трек 13 нет в базе данных
Трек 14 нет в базе данных
Трек 15 нет в базе данных
Трек 16 нет в базе данных
Трек 17 нет в базе данных
Трек 18 нет в базе данных
Трек 19 нет в базе данных
Трек 20 нет в базе данных
Трек 21 нет в базе данных
Трек 22 нет в базе данных
Трек 23 нет в базе данных
Трек 24 нет в базе данных
Трек 25 нет в базе данных
Трек 26 нет в базе данных
Трек 27 нет в базе данных
Трек 28 нет в базе данных
Ни одного трека нет в базе AccurateRip

Конец отчёта
Download

Войдите на сайт, чтобы увидеть полную информацию.

Как скачивать  ·   Правила трекера

[Профиль]  [ЛС] 

Алексей Кустов

Стаж: 9 лет 6 месяцев

Сообщений: 38

Ukraine

post 23-Июн-2010 00:33 (спустя 5 месяцев 26 дней)

[Цитировать] 

Скажите пожалуйста, у меня есть альбом с подобным названием, но содержащий 31 трек. Первые 5 дорожек совпадают, а дальше - не могу разобрать. Я в сомнениях - это у меня просто какой-то сборник или этот альбом выходил и в том виде, который есть у меня?
[Профиль]  [ЛС] 

seanesher

post 15-Авг-2010 05:04 (спустя 1 месяц 22 дня)

[Цитировать] 

Премного Благодарен
 

sinner7

Стаж: 9 лет 4 месяца

Сообщений: 242

post 13-Окт-2010 22:32 (спустя 1 месяц 29 дней)

[Цитировать] 

Храни Вас БОГ!
[Профиль]  [ЛС] 

Владимир Лухов

Стаж: 9 лет 1 месяц

Сообщений: 110

Откуда: Саратов

Russia

post 26-Ноя-2010 02:54 (спустя 1 месяц 12 дней)

[Цитировать] 

Спасибо
[Профиль]  [ЛС] 

Serjimag

Стаж: 9 лет

Сообщений: 8

Откуда: Россия

Russia

post 29-Ноя-2010 14:18 (спустя 3 дня)

[Цитировать] 

Спасибо!
[Профиль]  [ЛС] 

Александр Донцов

Стаж: 9 лет 10 месяцев

Сообщений: 454

post 08-Янв-2011 00:43 (спустя 1 месяц 8 дней)

[Цитировать] 

Спаси Господи за сие прекрасное пение.
[Профиль]  [ЛС] 

velebg

Стаж: 9 лет 8 месяцев

Сообщений: 21

Bulgaria

post 18-Янв-2011 19:53 (спустя 10 дней)

[Цитировать] 

СЕРГУЛЕТ
БЛАГОДАРЯ И СПАСИ ГОСПОДИ
[Профиль]  [ЛС] 

mregent

Стаж: 8 лет 8 месяцев

Сообщений: 5

Belarus

post 04-Фев-2011 22:24 (спустя 17 дней)

[Цитировать] 

Спаси Господи!!!
[Профиль]  [ЛС] 

Церкий

post 06-Май-2011 19:50 (спустя 3 месяца 1 день)

[Цитировать] 

Спасибо за lossless
 

xranimoe

Стаж: 6 лет 3 месяца

Сообщений: 1

Russia

post 06-Июл-2013 09:34 (спустя 2 года 1 месяц)

[Цитировать] 

Слава БОГУ за всё !!!
[Профиль]  [ЛС] 

Cometosee

Стаж: 6 лет 11 месяцев

Сообщений: 3

Откуда: Псков

Russia

post 15-Авг-2013 11:05 (спустя 1 месяц 9 дней)

[Цитировать] 

Огромное спасибо!
[Профиль]  [ЛС] 

stepan-frunze

Стаж: 10 лет

Сообщений: 2563

Russia

post 18-Авг-2013 23:00 (спустя 3 дня)

[Цитировать] 

Спасибо!
[Профиль]  [ЛС] 

t-alex362

Стаж: 9 лет

Сообщений: 6

Russia

post 12-Окт-2013 18:26 (спустя 1 месяц 24 дня)

[Цитировать] 

Спаси Господи!!!
[Профиль]  [ЛС] 

8XANDER8

Стаж: 6 лет 1 месяц

Сообщений: 4

Russia

post 31-Янв-2014 23:44 (спустя 3 месяца 19 дней)

[Цитировать] 

спасибо большое!
[Профиль]  [ЛС] 
Показать сообщения:    
Ответить на тему

Текущее время: 23-Окт 23:13

Часовой пояс: GMT + 4



Вы не можете начинать темы
Вы не можете отвечать на сообщения
Вы не можете редактировать свои сообщения
Вы не можете удалять свои сообщения
Вы не можете голосовать в опросах
Вы не можете прикреплять файлы к сообщениям
Вы не можете скачивать файлы