Loading...
Error

Грузинские духовные песнопения/Georgian Sacred Music - Ансамбль Рустави (1994) lossless FLAC (image+.cue) + mp3 320 Kbps

Ответить на тему
Статистика раздачи
   
 
Автор Сообщение

Academic Crack

Администратор

Стаж: 8 лет 9 месяцев

Сообщений: 2080

Russia

post 13-Янв-2009 18:51

[Цитировать] 

Грузинские духовные песнопения/Georgian Sacred Music - Ансамбль Рустави (1994) lossless FLAC (image+.cue) + mp3 320 Kbps
pic
Год выпуска: 1994
Жанр: Православные песнопения
Производитель диска: Gramzapis Company
Аудио кодек: FLAC/ mp3
Тип рипа: image+.cue
Битрейт аудио: lossless + mp3 320 Kbps
Язык: Грузинский (!!!)
Исполнитель: Ансамбль "Рустави"
Продолжительность: 62:26

Треклист:
01. Приидите, поклонимся 02:56
02. Господи, Боже наш 00:44
03. Яко да Царя 01:20
04. Царю Небесный 00:29
05. От восток солнца 01:56
06. Отче наш 00:51
07. Бог Господь 01:31
08. Благословен еси Христе Боже наш 00:22
09. Днесь Благодать Святаго Духа 01:59
10. Богородице Дево, радуйся 00:19
11. Ты еси Лоза истинная 05:04
12. Кресту Твоему 02:03
13. Милосердия двери отверзи 00:19
14. Рождество Твое нетленно есть, Дево 01:50
15. Во святых дивен сый 00:32
16. Тропарь святой царице Тамаре 03:01
17. Апостолы Первоверховнии 00:15
18. Тропарь святым апостолам 02:32
19. Слова Божия Служительнице 00:20
20. Кондак святой Нине 02:00
21. Тропарь святому Великомученику Георгию Победоносцу 00:28
22. Тропарь святому Великомученику Георгию 01:40
23. Тропарь святому благоверному Царю Давиду VI 00:48
24. Слава Тебе, Боже наш 00:19
25. Тропарь святому Илии 00:49
26. Пресвятая Богородице 00:26
27. Спаси, Господи, люди Твоя 00:22
28. Святый Боже 03:54
29. Догматик на литии 00:33
30. Алилоса (сванская бытовая) 02:03
31. Величальная 00:24
32. Кахури алило (кахетинская ритуальная) 03:59
33. I и III ирмосы из канона Рождеству Христову 00:48
34. Молитва Иисусова 02:10
35. IV ирмос из канона Рождеству Христову 00:24
36. Рачули алило (рачинская ритуальная) 03:00
37. V ирмос из канона Рождеству Христову 00:24
38. Мегрули алило (мегрельская ритуальная) 02:12
39. VI ирмос из канона Рождеству Христову 00:25
40. Елицы во Христа крестистеся 01:36
41. VII и VIII ирмосы из канона Рождеству Христову 00:53
42. Аллилуйя (песнопение, карталино-кахетинский лад) 01:36
43. IX ирмос из канона Рождеству Христову 00:23
44. Гурули алило (гурийская ритуальная) 02:08

Внимание!
Кто хочет скачать только лишь mp3, то выбираем соответствующую папку в торренте при добавлении закачки. Кто хочет скачать только lossless - то же самое. контент lossless и lossy идентичны. Кто хочет скачать все - качайте все. Сканы обложек и диска в разрешении 300 dpi, а также log-файл EAC приложены к раздаче.
Не забываем, что исполнение на грузинском языке.

Прослушать сэмпл (по ссылке дождитесь загрузки панельки flash-проигрывателя и кликните на кнопку воспроизведения)

О том, как воспроизводить lossless-форматы на компьютере, читайте здесь.
Лог EAC
Exact Audio Copy V0.99 prebeta 4 from 23. January 2008

Отчёт EAC об извлечении, выполненном 13. января 2009, 16:44

Ансамбль Рустави / Грузинские духовные песнопения

Дисковод: ASUS DRW-1814BL Adapter: 2 ID: 1

Режим чтения : Достоверность
Использование точного потока : Да
Отключение кэша аудио : Да
Использование указателей C2 : Нет

Коррекция смещения при чтении : 6
Способность читать области Lead-in и Lead-out : Нет
Заполнение пропущенных сэмплов тишиной : Да
Удаление блоков с тишиной в начале и конце : Нет
При вычислениях CRC использовались нулевые сэмплы : Да
Интерфейс : Установленный внешний ASPI-интерфейс

Выходной формат : Внутренние WAV-операции
Формат сэмплов : 44.100 Гц; 16 бит; стерео

TOC извлечённого CD

Трек | Старт | Длительность | Начальный сектор | Конечный сектор
---------------------------------------------------------------------
1 | 0:00.00 | 2:56.58 | 0 | 13257
2 | 2:56.58 | 0:44.17 | 13258 | 16574
3 | 3:41.00 | 1:20.50 | 16575 | 22624
4 | 5:01.50 | 0:29.25 | 22625 | 24824
5 | 5:31.00 | 1:56.25 | 24825 | 33549
6 | 7:27.25 | 0:51.58 | 33550 | 37432
7 | 8:19.08 | 1:31.17 | 37433 | 44274
8 | 9:50.25 | 0:22.00 | 44275 | 45924
9 | 10:12.25 | 1:59.33 | 45925 | 54882
10 | 12:11.58 | 0:19.50 | 54883 | 56357
11 | 12:31.33 | 5:04.37 | 56358 | 79194
12 | 17:35.70 | 2:03.35 | 79195 | 88454
13 | 19:39.30 | 0:19.58 | 88455 | 89937
14 | 19:59.13 | 1:50.67 | 89938 | 98254
15 | 21:50.05 | 0:32.08 | 98255 | 100662
16 | 22:22.13 | 3:01.12 | 100663 | 114249
17 | 25:23.25 | 0:15.05 | 114250 | 115379
18 | 25:38.30 | 2:32.58 | 115380 | 126837
19 | 28:11.13 | 0:20.70 | 126838 | 128407
20 | 28:32.08 | 2:00.50 | 128408 | 137457
21 | 30:32.58 | 0:28.30 | 137458 | 139587
22 | 31:01.13 | 1:40.20 | 139588 | 147107
23 | 32:41.33 | 0:48.45 | 147108 | 150752
24 | 33:30.03 | 0:19.00 | 150753 | 152177
25 | 33:49.03 | 0:49.02 | 152178 | 155854
26 | 34:38.05 | 0:26.40 | 155855 | 157844
27 | 35:04.45 | 0:22.00 | 157845 | 159494
28 | 35:26.45 | 3:54.05 | 159495 | 177049
29 | 39:20.50 | 0:33.30 | 177050 | 179554
30 | 39:54.05 | 2:03.70 | 179555 | 188849
31 | 41:58.00 | 0:24.00 | 188850 | 190649
32 | 42:22.00 | 3:59.63 | 190650 | 208637
33 | 46:21.63 | 0:48.00 | 208638 | 212237
34 | 47:09.63 | 2:10.12 | 212238 | 221999
35 | 49:20.00 | 0:24.45 | 222000 | 223844
36 | 49:44.45 | 3:00.33 | 223845 | 237377
37 | 52:45.03 | 0:24.72 | 237378 | 239249
38 | 53:10.00 | 2:12.43 | 239250 | 249192
39 | 55:22.43 | 0:25.57 | 249193 | 251124
40 | 55:48.25 | 1:36.63 | 251125 | 258387
41 | 57:25.13 | 0:53.12 | 258388 | 262374
42 | 58:18.25 | 1:36.33 | 262375 | 269607
43 | 59:54.58 | 0:23.12 | 269608 | 271344
44 | 60:17.70 | 2:08.55 | 271345 | 280999

Характеристики диапазона извлечения и сообщения об ошибках

Выбранный диапазон

Имя файла J:\Religion\Ансамбль Рустави - Грузинские духовные песнопения\lossless\CDImage.wav

Пиковый уровень 58.6 %
Качество диапазона 99.9 %
CRC теста 4F2DD31B
CRC копии 4F2DD31B
Копирование... OK

Ошибок не произошло

AccurateRip: сводка

Трек 1 точное извлечение (доверие 2) [E6376781]
Трек 2 точное извлечение (доверие 2) [BC115A04]
Трек 3 точное извлечение (доверие 2) [A3179A93]
Трек 4 точное извлечение (доверие 2) [242FE204]
Трек 5 точное извлечение (доверие 2) [A07CDC86]
Трек 6 точное извлечение (доверие 2) [5A739D6A]
Трек 7 точное извлечение (доверие 2) [9138BFEC]
Трек 8 точное извлечение (доверие 2) [E545CBC5]
Трек 9 точное извлечение (доверие 2) [3B5FBC42]
Трек 10 точное извлечение (доверие 2) [1F29DB0B]
Трек 11 точное извлечение (доверие 2) [8B75747B]
Трек 12 точное извлечение (доверие 2) [69BC0E4E]
Трек 13 точное извлечение (доверие 2) [D35F3FB8]
Трек 14 точное извлечение (доверие 2) [A9DDC907]
Трек 15 точное извлечение (доверие 2) [B94B051B]
Трек 16 точное извлечение (доверие 2) [95DAA65B]
Трек 17 точное извлечение (доверие 2) [03ACA407]
Трек 18 точное извлечение (доверие 2) [A8FF6A84]
Трек 19 точное извлечение (доверие 2) [6A1DE26C]
Трек 20 точное извлечение (доверие 2) [7AEF07CC]
Трек 21 точное извлечение (доверие 2) [93F05252]
Трек 22 точное извлечение (доверие 2) [366DFA30]
Трек 23 точное извлечение (доверие 2) [2575CA13]
Трек 24 точное извлечение (доверие 2) [D9FEC84B]
Трек 25 точное извлечение (доверие 2) [A8EA536A]
Трек 26 точное извлечение (доверие 2) [4730893D]
Трек 27 точное извлечение (доверие 2) [38DCC265]
Трек 28 точное извлечение (доверие 2) [FE5C2245]
Трек 29 точное извлечение (доверие 2) [548C769A]
Трек 30 точное извлечение (доверие 2) [C1CAE494]
Трек 31 точное извлечение (доверие 2) [DF56DE3E]
Трек 32 точное извлечение (доверие 2) [E5749475]
Трек 33 нет в базе данных
Трек 34 нет в базе данных
Трек 35 точное извлечение (доверие 2) [1C47E0AA]
Трек 36 точное извлечение (доверие 2) [D73B12F4]
Трек 37 точное извлечение (доверие 2) [E8650535]
Трек 38 точное извлечение (доверие 2) [BC9926B8]
Трек 39 точное извлечение (доверие 2) [D8ADFADE]
Трек 40 точное извлечение (доверие 2) [706DC1DB]
Трек 41 точное извлечение (доверие 2) [4C9B380F]
Трек 42 точное извлечение (доверие 2) [69878E82]
Трек 43 точное извлечение (доверие 2) [E522223B]
Трек 44 точное извлечение (доверие 2) [0579C30B]

42 трек(и) скопированы точно
2 трек(и) не содержатся в базе AccurateRip

Некоторые треки не прошли проверку на точность

Конец отчёта
Сканы обложек и диска
picpicpicpic
Download

Войдите на сайт, чтобы увидеть полную информацию.

Как скачивать  ·   Правила трекера



Последний раз редактировалось: Academic Crack (2014-10-19 21:30), всего редактировалось 2 раз(а)
[Профиль]  [ЛС] 

igsvi

post 31-Окт-2010 21:01 (спустя 1 год 9 месяцев)

[Цитировать] 

Дайте раздачу FLAC, пожалуйста!!! Мне mp3 не нужно!!!
 

igsvi

post 31-Окт-2010 21:02 (спустя 1 минута)

[Цитировать] 

Academic Crack
Не идет раздача lossless!!!
 

Academic Crack

Администратор

Стаж: 8 лет 9 месяцев

Сообщений: 2080

Russia

post 01-Ноя-2010 04:23 (спустя 7 часов)

[Цитировать] 

Знаю. Как будет возможность раздать - раздам. Сейчас пока таковой нет.

_________________
pic
pic 100 Мбит/с, pic 100 Мбит/с.
Исправили раздачу? Пишите в личку со ссылкой на раздачу.
[Профиль]  [ЛС] 

Серафим71

post 10-Мар-2011 08:35 (спустя 4 месяца 9 дней)

[Цитировать] 

Спасибо
 

eisler444

post 08-Июл-2012 14:15 (спустя 1 год 3 месяца)

[Цитировать] 

Спасибо!!!
 

vika010288

Стаж: 8 лет 2 месяца

Сообщений: 458

Georgia

post 19-Июл-2012 20:28 (спустя 11 дней)

[Цитировать] 

Спаси Господи!
[Профиль]  [ЛС] 

pavel

post 21-Сен-2012 13:27 (спустя 2 месяца 1 день)

[Цитировать] 

Пожалуйста, встаньте на раздачу!
 

silveryshadow

Стаж: 3 года 7 месяцев

Сообщений: 1

post 02-Мар-2014 19:36 (спустя 1 год 5 месяцев)

[Цитировать] 

Спасибо!
[Профиль]  [ЛС] 

Tgloria2015

Стаж: 2 года 6 месяцев

Сообщений: 4

Ukraine

post 04-Мар-2015 23:05 (спустя 1 год)

[Цитировать] 

Спасибо!

_________________
Бог создал нас для других.
[Профиль]  [ЛС] 

саша3

Стаж: 2 года 5 месяцев

Сообщений: 13

post 30-Апр-2015 20:57 (спустя 1 месяц 25 дней)

[Цитировать] 

Спасибо, Вам за раздачу!
[Профиль]  [ЛС] 

Kochec

Стаж: 8 лет 9 месяцев

Сообщений: 13

Откуда: Русь, Московия

Russia

post 13-Май-2017 08:00 (спустя 2 года)

[Цитировать] 

Сид вернись дай скачать!

_________________
pic
[Профиль]  [ЛС] 
Показать сообщения:    
Ответить на тему

Текущее время: 25-Сен 08:19

Часовой пояс: GMT + 4



Вы не можете начинать темы
Вы не можете отвечать на сообщения
Вы не можете редактировать свои сообщения
Вы не можете удалять свои сообщения
Вы не можете голосовать в опросах
Вы не можете прикреплять файлы к сообщениям
Вы не можете скачивать файлы