Loading...
Error

Верую (Елена Козенкова) [2001 г., документальный, DVDRip]

Ответить на тему
Статистика раздачи
Скачали: [ 2 ]
   
 
Автор Сообщение

OlegZ

Стаж: 5 лет 8 месяцев

Сообщений: 420

Russia

post 04-Май-2015 17:52

[Цитировать] 

Верую (Елена Козенкова) [2001 г., DVDRip]

pic
Год выпуска: 2001
Жанр: документальный
Продолжительность: 1:19:56, 1:07:21

Режиссер: Елена Козенкова

В фильме снимались: архимандрит Тихон (Агриков), иеромонах Моисей (Боголюбов), Никита Михалков, Юрий Владимиров и др.

Описание: Герои фильма - очень известные люди. Их совсем разные жизни схожи в одном: в своей работе каждый из них добился успеха и признания, но ни слава, ни деньги, ни положение в обществе не принесли им душевного мира. Ответ на волнующий каждого человека вопрос - в чём смысл жизни и смерти? Они нашли в Православной вере. Иеромонах Моисей (Боголюбов), Никита Михалков, Юрий Владимиров.

Дополнительная информация: Почему-то существует 2-е версии этого фильма: одна продолжительностью 1:19:56, другая: 1:07:21.
Бегло отсмотрел: в версии DVD нет сюжета про Никиту Михалкова.

Качество: DVDRip
Формат: AVI
Видео кодек: XviD
Аудио кодек: MP3
Видео: 688x568 (1,292), 50 fps, XviD MPEG-4 1000 kbps avg, 0.051 bit/pixel*кадры
Аудио: 48 kHz, MP3, 2/0 (L,R) ch, 128.00 kbps avg
MediaInfo
Veruy.avi
Полное имя : Veruy.avi
Формат : AVI
Формат/Информация : Audio Video Interleave
Размер файла : 655 Мбайт
Продолжительность : 1 ч. 19 м.
Общий поток : 1146 Кбит/сек
Программа кодирования : Lavf56.15.102
Примечание : AVI > AVI DVD Player 720p / MPEG4 > XVID VBR-3P 1000kbps HQ / AC3 > MP3 HQ

Видео
Идентификатор : 0
Формат : MPEG-4 Visual
Профиль формата : Advanced Simple@L5
Параметр BVOP формата : 1
Параметр QPel формата : Нет
Параметр GMC формата : Без точки перехода
Параметр матрицы формата : Default (H.263)
Идентификатор кодека : XVID
Идентификатор кодека/Подсказка : XviD
Продолжительность : 1 ч. 19 м.
Битрейт : 1000 Кбит/сек
Ширина : 688 пикселей
Высота : 568 пикселей
Соотношение сторон : 1,292
Частота кадров : 50,000 кадров/сек
Цветовое пространство : YUV
Субдискретизация насыщенности : 4:2:0
Битовая глубина : 8 бит
Тип развёртки : Прогрессивная
Метод сжатия : С потерями
Бит/(Пиксели*Кадры) : 0.051
Размер потока : 572 Мбайт (87%)
Библиотека кодирования : XviD 64

Аудио
Идентификатор : 1
Формат : MPEG Audio
Версия формата : Version 1
Профиль формата : Layer 3
Режим : Joint stereo
Расширение режима : MS Stereo
Идентификатор кодека : 55
Идентификатор кодека/Подсказка : MP3
Продолжительность : 1 ч. 19 м.
Вид битрейта : Постоянный
Битрейт : 128 Кбит/сек
Каналы : 2 канала
Частота : 48,0 КГц
Метод сжатия : С потерями
Размер потока : 73,2 Мбайт (11%)
Выравнивание : Соединение по промежуткам
Продолжительность промежутка : 24 мс. (1,20 видеокадр)
Библиотека кодирования : LAME3.99.5
Veruy_DVD.avi
Полное имя : Veruy_DVD.avi
Формат : AVI
Формат/Информация : Audio Video Interleave
Размер файла : 795 Мбайт
Продолжительность : 1 ч. 7 м.
Общий поток : 1649 Кбит/сек
Программа кодирования : Lavf56.15.102
Библиотека кодирования : VirtualDub build 35491/release
Примечание : DVD > AVI DVD Player 720p / MPEG2 > XVID VBR-3P 1500kbps HQ / AC3 > MP3 HQ

Видео
Идентификатор : 0
Формат : MPEG-4 Visual
Профиль формата : Advanced Simple@L5
Параметр BVOP формата : 1
Параметр QPel формата : Нет
Параметр GMC формата : Без точки перехода
Параметр матрицы формата : Default (H.263)
Идентификатор кодека : XVID
Идентификатор кодека/Подсказка : XviD
Продолжительность : 1 ч. 7 м.
Битрейт : 1504 Кбит/сек
Ширина : 688 пикселей
Высота : 568 пикселей
Соотношение сторон : 1,292
Частота кадров : 50,000 кадров/сек
Цветовое пространство : YUV
Субдискретизация насыщенности : 4:2:0
Битовая глубина : 8 бит
Тип развёртки : Прогрессивная
Метод сжатия : С потерями
Бит/(Пиксели*Кадры) : 0.077
Размер потока : 724 Мбайт (91%)
Библиотека кодирования : XviD 64

Аудио
Идентификатор : 1
Формат : MPEG Audio
Версия формата : Version 1
Профиль формата : Layer 3
Режим : Joint stereo
Расширение режима : MS Stereo
Идентификатор кодека : 55
Идентификатор кодека/Подсказка : MP3
Продолжительность : 1 ч. 7 м.
Вид битрейта : Постоянный
Битрейт : 128 Кбит/сек
Каналы : 2 канала
Частота : 48,0 КГц
Метод сжатия : С потерями
Размер потока : 61,7 Мбайт (8%)
Выравнивание : Соединение по промежуткам
Продолжительность промежутка : 24 мс. (1,20 видеокадр)
Время предзагрузки промежутка : 504 мс.
Библиотека кодирования : LAME3.99.5
Скриншоты:
picpicpicpic]
Download

Войдите для скачивания торрент-файла

Как скачивать  ·   Правила трекера

[Профиль]  [ЛС] 
Показать сообщения:    
Ответить на тему

Текущее время: 30-Май 17:07

Часовой пояс: GMT + 4



Вы не можете начинать темы
Вы не можете отвечать на сообщения
Вы не можете редактировать свои сообщения
Вы не можете удалять свои сообщения
Вы не можете голосовать в опросах
Вы не можете прикреплять файлы к сообщениям
Вы не можете скачивать файлы