Loading...
Error

Верую (Елена Козенкова) [2001 г., документальный, DVDRip] Обновлено 29.12.17

Ответить на тему
Статистика раздачи
   
 
Автор Сообщение

OlegZ

Стаж: 7 лет 2 месяца

Сообщений: 564

Russia

post 04-Май-2015 17:52

[Цитировать] 

Верую (Елена Козенкова) [2001 г., DVDRip]

pic
Год выпуска: 2001
Страна: Россия
Жанр: документальный
Продолжительность: 1:07:21, 00:17:21
Режиссер: Елена Козенкова
В фильме снимались: архимандрит Тихон (Агриков), иеромонах Моисей (Боголюбов), Никита Михалков, Юрий Владимиров и др.

Прямая ссылка на яндекс-диск

Описание: Герои фильма - очень известные люди. Их совсем разные жизни схожи в одном: в своей работе каждый из них добился успеха и признания, но ни слава, ни деньги, ни положение в обществе не принесли им душевного мира. Ответ на волнующий каждого человека вопрос - в чём смысл жизни и смерти? Они нашли в Православной вере. Иеромонах Моисей (Боголюбов), Никита Михалков, Юрий Владимиров.

Дополнительная информация: Почему-то существует 2-е версии этого фильма: одна продолжительностью 1:19:56, другая: 1:07:21.
Бегло отсмотрел: в версии DVD нет сюжета про Никиту Михалкова.

Качество: DVDRip
Формат: AVI
Видео кодек: XviD
Аудио кодек: MP3
Видео: 720х544 (4:3), 50 fps, XviD MPEG-4 1504 kbps avg, 0.077 bit/pixel*кадры
Аудио: 48 kHz, MP3, 2/0 (L,R) ch, 192.00 kbps avg
MediaInfo
Veruy_DVD.avi
Полное имя : Veruy_DVD.avi
Формат : AVI
Формат/Информация : Audio Video Interleave
Размер файла : 825 Мбайт
Продолжительность : 1 ч. 7 м.
Общий поток : 1713 Кбит/сек
Программа кодирования : Lavf56.15.102
Библиотека кодирования : VirtualDub build 35491/release
Примечание : DVD > AVI DVD Player 576p / MPEG2 > XVID VBR-3P 1500kbps HQ / AC3 > MP3 HQ

Видео
Идентификатор : 0
Формат : MPEG-4 Visual
Профиль формата : Advanced Simple@L5
Параметр BVOP формата : 1
Параметр QPel формата : Нет
Параметр GMC формата : Без точки перехода
Параметр матрицы формата : Default (H.263)
Идентификатор кодека : XVID
Идентификатор кодека/Подсказка : XviD
Продолжительность : 1 ч. 7 м.
Битрейт : 1504 Кбит/сек
Ширина : 720 пикселей
Высота : 544 пикселя
Соотношение сторон : 4:3
Частота кадров : 50,000 кадров/сек
Цветовое пространство : YUV
Субдискретизация насыщенности : 4:2:0
Битовая глубина : 8 бит
Тип развёртки : Прогрессивная
Метод сжатия : С потерями
Бит/(Пиксели*Кадры) : 0.077
Размер потока : 724 Мбайт (88%)
Библиотека кодирования : XviD 64
Выступление Михалкова.avi
Полное имя : Выступление Михалкова.avi
Формат : AVI
Формат/Информация : Audio Video Interleave
Размер файла : 272 Мбайт
Продолжительность : 17 м.
Общий поток : 2208 Кбит/сек
Программа кодирования : Lavf56.15.102
Примечание : AVI > AVI DVD Player 576p / MPEG4 > XVID VBR-3P 2000kbps HQ / AC3 > MP3 HQ

Видео
Идентификатор : 0
Формат : MPEG-4 Visual
Профиль формата : Advanced Simple@L5
Параметр BVOP формата : 1
Параметр QPel формата : Нет
Параметр GMC формата : Без точки перехода
Параметр матрицы формата : Default (H.263)
Идентификатор кодека : XVID
Идентификатор кодека/Подсказка : XviD
Продолжительность : 17 м.
Битрейт : 1998 Кбит/сек
Ширина : 720 пикселей
Высота : 544 пикселя
Соотношение сторон : 4:3
Частота кадров : 50,000 кадров/сек
Цветовое пространство : YUV
Субдискретизация насыщенности : 4:2:0
Битовая глубина : 8 бит
Тип развёртки : Прогрессивная
Метод сжатия : С потерями
Бит/(Пиксели*Кадры) : 0.102
Размер потока : 246 Мбайт (90%)
Библиотека кодирования : XviD 64

Аудио
Идентификатор : 1
Формат : MPEG Audio
Версия формата : Version 1
Профиль формата : Layer 3
Режим : Joint stereo
Расширение режима : MS Stereo
Идентификатор кодека : 55
Идентификатор кодека/Подсказка : MP3
Продолжительность : 17 м.
Вид битрейта : Постоянный
Битрейт : 192 Кбит/сек
Каналы : 2 канала
Частота : 48,0 КГц
Метод сжатия : С потерями
Размер потока : 23,6 Мбайт (9%)
Выравнивание : Соединение по промежуткам
Продолжительность промежутка : 24 мс. (1,20 видеокадр)
Библиотека кодирования : LAME3.99.5
Скриншоты:
picpicpicpic]
Download

Войдите на сайт, чтобы увидеть полную информацию.

Как скачивать  ·   Правила трекера


_________________
Мои раздачи на правторе Напишите письмо на olegz.pravtor@bk.ru. Это автоответчик. В ответ придет письмо с прямыми ссылками на файлы моих раздач на правторе.


Последний раз редактировалось: OlegZ (2018-02-01 16:43), всего редактировалось 3 раз(а)
[Профиль]  [ЛС] 

OlegZ

Стаж: 7 лет 2 месяца

Сообщений: 564

Russia

post 29-Дек-2017 04:59 (спустя 2 года 7 месяцев)

[Цитировать] 

Отдельно сделан, отсутствующий в DVD-варианте, фрагмент с выступлением Никиты Михалкова.

_________________
Мои раздачи на правторе Напишите письмо на olegz.pravtor@bk.ru. Это автоответчик. В ответ придет письмо с прямыми ссылками на файлы моих раздач на правторе.
[Профиль]  [ЛС] 

andrejpushkaryov

Модератор

Стаж: 9 лет 7 месяцев

Сообщений: 1042

Откуда: Ижевск

Russia

post 30-Дек-2017 08:43 (спустя 1 день 3 часа)

[Цитировать] 

Скриншоты не соответствуют заявленным данным
[Профиль]  [ЛС] 

OlegZ

Стаж: 7 лет 2 месяца

Сообщений: 564

Russia

post 05-Янв-2018 01:17 (спустя 5 дней)

[Цитировать] 

andrejpushkaryov, а в этой: https://pravtor.ru/viewtopic.php?t=14596 раздаче что не "так"?

_________________
Мои раздачи на правторе Напишите письмо на olegz.pravtor@bk.ru. Это автоответчик. В ответ придет письмо с прямыми ссылками на файлы моих раздач на правторе.
[Профиль]  [ЛС] 
Показать сообщения:    
Ответить на тему

Текущее время: 16-Ноя 15:57

Часовой пояс: GMT + 4



Вы не можете начинать темы
Вы не можете отвечать на сообщения
Вы не можете редактировать свои сообщения
Вы не можете удалять свои сообщения
Вы не можете голосовать в опросах
Вы не можете прикреплять файлы к сообщениям
Вы не можете скачивать файлы