Loading...
Error

"Днесь вод освящается естество". Божественная литургия и чин великого освящения воды, совершенное Святейшим Патриархом Алексием II 19.01.2002 г. [2002 г., Записи и трансляции церковных богослужений (DVD+CD)., DVD9]

Ответить на тему
Статистика раздачи
   
 
Автор Сообщение

СЕРГУЛЕТ

Стаж: 10 лет

Сообщений: 2637

Откуда: LA ROMANA

Dominicanrep

post 11-Окт-2009 20:33

[Цитировать] 

"Днесь вод освящается естество". Божественная литургия и чин великого освящения воды, совершенное Святейшим Патриархом Алексием II 19.01.2002г.

pic
Год выпуска: 2002
Жанр: Записи и трансляции церковных богослужений (DVD).
Продолжительность: 02:35:17(DVD)+01:17:39(СD).

Описание: DVD диск
1. Благовест
2. Встреча Святейшего Патриарха Московского и всея Руси Алексия II
3. Облачение Святейшего Патриарха
4. Начало Божественной Литургии
5. Великая ектения
6. Антифон 1-й
7. Малая ектения
8. Антифон 2-й
9. Единородный Сыне…
10. Малая ектения
11. Антифон 3-й
12. Малый вход
13. Ис полла эти Деспота…
14. Тропарь праздника Крещения Господня
15. Господи, спаси благочестивыя…
16. Великая похвала
17. Кондак праздника Крещения Господня
18. Елицы во Христа крестистеся…
19. Прокимен праздника. Чтение Апостола. Аллилуиа
20. Чтение Евангелия
21. Сугубая ектения
22. Ектения об оглашенных
23. Херувимская песнь
24. Великий вход
25. Иерейская хиротония
26. Просительная ектения: Исполним молитву…
27. Символ веры
28. Евхаристический канон
29. Задостойник праздника крещения Господня
30. Просительная ектения: Вся святыя помянувше…
31. Молитва Господня: Отче наш…
32. Причастен
33. Причащение
34. Ектения: Прости, приимше…
35. Заамвонная молитва
36. Начало Великого освящения воды
37. Паремии Великого освящения воды
38. Чтение Апостола
39. Чтения Евангелия
40. Великая ектения чина Великого освящения воды
41. Молитва Великого освящения воды
42. Погружение Св. Креста в воду
43. Окропление святой водой
44. Отпуст Божественной Литургии
45. Многолетие

CD диск
1. Молитва Святейшего Патриарха перед Божественной литургией
2. Антифоны
3. Малый вход
Приидите, поклонимся…
4. Кондак праздника Богоявления
5. Елицы во Христа крестистеся…
6. Прокимен. Чтение Апостола
7. Аллилуиа. Чтение Евангелия
8. Херувимская песнь
Чин великого освящения воды
9. Водосвятные тропари
10. Чтение паримий
11. Пркимен. Чтение Апостола
12. Чтение Евангелия
13. Великая ектения
14. Молитва из освящение воды
Велий еси, Господь, и чудна дела Твоя…
15. Тропарь (глас 1) «Во Иордане крещающуся Тебе, Господи…»
16. Буди имя Господне…
17. Многолетие
18. Слово Святейшего Патриарха Московского и всея Руси Алексия II

Дополнительная информация: Хоры Богоявленского собора. Регенты: Надежда Бирюкова, Владимир Тоготин.

Параметры CD:
Формат: FLAC (image + .cue)
Битрейт аудио: lossless

Качество: DVD9
Формат: DVD Video
Видео кодек: MPEG2
Видео: PAL 4:3 (720x576) VBR
Аудио: Audio #1: AC3, 3/2+LFE ch, 448Kbps, Delay 0 mSec, Audio #2: AC3, 2/0 ch, 224Kbps, Delay 0 mSec

Скриншоты:
Анаморфированные скриншоты
picpicpicpicpic
EAC log
Exact Audio Copy V0.99 prebeta 5 from 4. May 2009

Отчёт EAC об извлечении, выполненном 11. октября 2009, 17:26

Хор Богоявленского Собора / Днесь вод освящается естество

Дисковод: ASUS BC-1205PT Adapter: 1 ID: 0

Режим чтения : Достоверность
Использование точного потока : Да
Отключение кэша аудио : Да
Использование указателей C2 : Нет

Коррекция смещения при чтении : 667
Способность читать области Lead-in и Lead-out : Нет
Заполнение пропущенных сэмплов тишиной : Да
Удаление блоков с тишиной в начале и конце : Нет
При вычислениях CRC использовались нулевые сэмплы : Да
Интерфейс : Встроенный Win32-интерфейс для Win NT/2000

Выходной формат : Внутренние WAV-операции
Формат сэмплов : 44.100 Гц; 16 бит; стерео

TOC извлечённого CD

Трек | Старт | Длительность | Начальный сектор | Конечный сектор
---------------------------------------------------------------------
1 | 0:00.00 | 2:10.50 | 0 | 9799
2 | 2:10.50 | 8:48.68 | 9800 | 49467
3 | 10:59.43 | 3:41.37 | 49468 | 66079
4 | 14:41.05 | 0:29.02 | 66080 | 68256
5 | 15:10.07 | 1:35.51 | 68257 | 75432
6 | 16:45.58 | 4:14.20 | 75433 | 94502
7 | 21:00.03 | 5:12.33 | 94503 | 117935
8 | 26:12.36 | 9:31.22 | 117936 | 160782
9 | 35:43.58 | 5:58.30 | 160783 | 187662
10 | 41:42.13 | 5:57.34 | 187663 | 214471
11 | 47:39.47 | 2:02.53 | 214472 | 223674
12 | 49:42.25 | 1:32.57 | 223675 | 230631
13 | 51:15.07 | 6:00.12 | 230632 | 257643
14 | 57:15.19 | 9:18.69 | 257644 | 299562
15 | 66:34.13 | 2:56.04 | 299563 | 312766
16 | 69:30.17 | 2:11.58 | 312767 | 322649
17 | 71:42.00 | 3:03.46 | 322650 | 336420
18 | 74:45.46 | 2:51.43 | 336421 | 349288

Характеристики диапазона извлечения и сообщения об ошибках

Выбранный диапазон

Имя файла C:\Хор Богоявленского Собора - Днесь вод освящается естество.wav

Пиковый уровень 77.8 %
Качество диапазона 100.0 %
CRC копии B128F676
Копирование... OK

Ошибок не произошло
Конец отчёта
Download

Войдите на сайт, чтобы увидеть полную информацию.

Как скачивать  ·   Правила трекера



Последний раз редактировалось: СЕРГУЛЕТ (2010-03-11 20:11), всего редактировалось 1 раз
[Профиль]  [ЛС] 

Silver

Стаж: 10 лет

Сообщений: 1

Russia

post 21-Ноя-2009 21:50 (спустя 1 месяц 10 дней)

[Цитировать] 

Давно искал запись Литургии без комментариев (хотя хорошо отношусь к А.К. Светозарскому).

Большое спасибо за прекрасный подарок.
[Профиль]  [ЛС] 

Кристина Бородина

post 09-Мар-2010 13:52 (спустя 3 месяца 17 дней)

[Цитировать] 

Спасибо)
 

boric

Стаж: 10 лет

Сообщений: 28

post 13-Фев-2011 13:04 (спустя 11 месяцев)

[Цитировать] 

хор поет не очень но все равно молитвенно - и хор и вся служба. скачал и рад- спасибо!!!
[Профиль]  [ЛС] 

Странник1

Стаж: 10 лет

Сообщений: 2307

Russia

post 22-Мар-2011 11:35 (спустя 1 месяц 8 дней)

[Цитировать] 

Спаси Господи!
[Профиль]  [ЛС] 

stepan-frunze

Стаж: 10 лет

Сообщений: 2563

Russia

post 20-Июн-2013 04:02 (спустя 2 года 2 месяца)

[Цитировать] 

Спасибо)
[Профиль]  [ЛС] 

Vadim_

Стаж: 10 лет

Сообщений: 3

Ukraine

post 03-Авг-2013 20:19 (спустя 1 месяц 13 дней)

[Цитировать] 

Спасибо!
[Профиль]  [ЛС] 
Показать сообщения:    
Ответить на тему

Текущее время: 09-Дек 11:44

Часовой пояс: GMT + 4



Вы не можете начинать темы
Вы не можете отвечать на сообщения
Вы не можете редактировать свои сообщения
Вы не можете удалять свои сообщения
Вы не можете голосовать в опросах
Вы не можете прикреплять файлы к сообщениям
Вы не можете скачивать файлы