Loading...
Error

(Церковная музыка Греции, Афона и Сербии (lossless)) Хор "Контакион" - Таинство византийского распева / Kontakion - Mysteries of Byzantine Chant - 1996, FLAC (image + .cue), lossless

Ответить на тему
Статистика раздачи
Скачали: [ 12 ]
   
 
Автор Сообщение

etrusk

Стаж: 6 лет 2 месяца

Сообщений: 128

Russia

post 03-Мар-2011 00:19

[Цитировать] 

Kontakion - Mysteries of Byzantine Chant. Liturgical music from Greece and Romania

pic
Страна: Германия
Жанр: Церковная музыка Греции, Афона и Сербии (lossless)
Год выпуска: 1996
Формат: FLAC (image + .cue)
Битрейт аудио: lossless
Продолжительность: 1:03:03
Трэклист:
1. Toaca and Bells (trad.) - 1:43
2. Doxa (Anon.) - 1:38
3. Tis metanias (Anon.) - 3:09
4. Devte idomen tin zoin (Anon.) - 3:44
5. Kyrie, ekekraxa (Macarie Ieromonahul) - 3:34
6. Phos ilaron (Yannis Sakellaridis) - 2:01
7. Axion (Nectarie Vlahul) - 5:35
8. Eotinala: Os epeskhaton ton khronon (Anon.) - 4:16
9. Ektenie: Kyrie o Theos imon (Anon.) - 1:22
10. To sinbolon tis pisteos (Anon.) - 3:06
11. Exigorasas imas (from Easter Oratorio) (Paul Constantinescu) - 2:34
12. Trisagion: Aghios o Theos - 3:06
13. Kyrie (Gheorghe Popescu Branesti) - 1:41
14. Ektenie: Kyrie pantocrator (Anon.) - 1:36
15. Anixantos Sou tin khira (Theodoros Phokeos) - 3:15
16. Ekfonis: Oti eleimon (Anon.) - 0:37
17. Se ton anavallomenon to phos (Anon.) - 5:05
18. Dhouli kyrion (Petros Peloponisios) - 2:19
19. Aghios o Theos (Gheorghe Cucu) - 1:40
20. I zoi en tapho (Gheorghe Cucu) - 0:44
21. Proskinumen sou ta pathi Khriste (from Easter Oratorio) (Paul Constantinescu) - 3:20
22. Anastaseos imera (Anon.) - 2:39
23. Khristos anesti (from Easter Oratorio) (Paul Constantinescu) - 1:52
24. Khristos anesti (Anon.) (with toaca and bells) - 2:32
Дополнительная информация:
Исполнители: Ion Buga, priest; Gabriel Oprea, psalm singer; Marian Fârtat, psalm singer; Nicolae Giolu, psalm singer; Aurel Frangulea, psalm singer; conducted by Mihail Diaconescu.

Предлагается альбом румынского хора "Контакион", посвященный византийскому распеву. Помимо церковных песнопений, исполненных в традиционной греко-византийской манере, также представлены авторские сочинения - например, отрывки из "Пасхальной оратории" Павла Константинеску. Также ряд песнопений полифонические, явно ощущается влияние западного стиля пения. Все песнопения поются на греческом языке.
Личное мнение: довольно интересно, но не более, особых откровений ожидать не стоит.

Сам диск явно не очень чтобы лицензионный, впрочем прочитался хорошо.
EAC log
Exact Audio Copy V0.99 prebeta 5 from 4. May 2009

Отчёт EAC об извлечении, выполненном 27. февраля 2011, 15:09

Kontakion / Mysteries of Byzantine Chant

Дисковод: Optiarc DVD RW AD-7200S Adapter: 5 ID: 0

Режим чтения : Достоверность
Использование точного потока : Да
Отключение кэша аудио : Да
Использование указателей C2 : Нет

Коррекция смещения при чтении : 48
Способность читать области Lead-in и Lead-out : Нет
Заполнение пропущенных сэмплов тишиной : Да
Удаление блоков с тишиной в начале и конце : Нет
При вычислениях CRC использовались нулевые сэмплы : Да
Интерфейс : Встроенный Win32-интерфейс для Win NT/2000

Выходной формат : Внутренние WAV-операции
Формат сэмплов : 44.100 Гц; 16 бит; стерео

TOC извлечённого CD

Трек | Старт | Длительность | Начальный сектор | Конечный сектор
---------------------------------------------------------------------
1 | 0:00.00 | 1:43.37 | 0 | 7761
2 | 1:43.37 | 1:37.63 | 7762 | 15099
3 | 3:21.25 | 3:08.50 | 15100 | 29249
4 | 6:30.00 | 3:44.00 | 29250 | 46049
5 | 10:14.00 | 3:34.25 | 46050 | 62124
6 | 13:48.25 | 2:00.50 | 62125 | 71174
7 | 15:49.00 | 5:35.00 | 71175 | 96299
8 | 21:24.00 | 4:16.00 | 96300 | 115499
9 | 25:40.00 | 1:22.00 | 115500 | 121649
10 | 27:02.00 | 3:06.00 | 121650 | 135599
11 | 30:08.00 | 2:34.00 | 135600 | 147149
12 | 32:42.00 | 3:01.00 | 147150 | 160724
13 | 35:43.00 | 1:41.00 | 160725 | 168299
14 | 37:24.00 | 1:36.00 | 168300 | 175499
15 | 39:00.00 | 3:15.00 | 175500 | 190124
16 | 42:15.00 | 0:37.00 | 190125 | 192899
17 | 42:52.00 | 5:05.00 | 192900 | 215774
18 | 47:57.00 | 2:19.00 | 215775 | 226199
19 | 50:16.00 | 1:40.00 | 226200 | 233699
20 | 51:56.00 | 0:44.25 | 233700 | 237024
21 | 52:40.25 | 3:19.50 | 237025 | 251999
22 | 56:00.00 | 2:39.00 | 252000 | 263924
23 | 58:39.00 | 1:52.00 | 263925 | 272324
24 | 60:31.00 | 2:32.00 | 272325 | 283724

Характеристики диапазона извлечения и сообщения об ошибках

Выбранный диапазон

Имя файла J:\Audio\Kontakion\Kontakion - Mysteries of Byzantine Chant.wav

Пиковый уровень 100.0 %
Качество диапазона 100.0 %
CRC теста 288E63A4
CRC копии 288E63A4
Копирование... OK

Ошибок не произошло

AccurateRip: сводка
Трек 1 нет в базе данных
Трек 2 нет в базе данных
Трек 3 нет в базе данных
Трек 4 нет в базе данных
Трек 5 нет в базе данных
Трек 6 нет в базе данных
Трек 7 нет в базе данных
Трек 8 нет в базе данных
Трек 9 нет в базе данных
Трек 10 нет в базе данных
Трек 11 нет в базе данных
Трек 12 нет в базе данных
Трек 13 нет в базе данных
Трек 14 нет в базе данных
Трек 15 нет в базе данных
Трек 16 нет в базе данных
Трек 17 нет в базе данных
Трек 18 нет в базе данных
Трек 19 нет в базе данных
Трек 20 нет в базе данных
Трек 21 нет в базе данных
Трек 22 нет в базе данных
Трек 23 нет в базе данных
Трек 24 нет в базе данных
Ни одного трека нет в базе AccurateRip

Конец отчёта
Обложки, индексные карты, логи, информация с оригинального диска прикладываются.
Download

Войдите для скачивания торрент-файла

Как скачивать  ·   Правила трекера

[Профиль]  [ЛС] 

КукА

Стаж: 7 лет 7 месяцев

Сообщений: 526

Откуда: Одесса

Ukraine

post 03-Мар-2011 00:46 (спустя 26 минут)

[Цитировать] 

Спаси Господи!!
[Профиль]  [ЛС] 

vika010288

Стаж: 7 лет 5 месяцев

Сообщений: 459

Georgia

post 16-Фев-2013 00:47 (спустя 1 год 11 месяцев)

[Цитировать] 

Благодарю.
[Профиль]  [ЛС] 

arcana333

post 17-Фев-2013 17:49 (спустя 1 день 17 часов)

[Цитировать] 

Благодарю
 

George1970

Стаж: 3 года 6 месяцев

Сообщений: 7

Australia

post 18-Май-2013 13:14 (спустя 3 месяца)

[Цитировать] 

Thank You Very Nice
[Профиль]  [ЛС] 

stepan-frunze

Стаж: 7 лет 8 месяцев

Сообщений: 2565

Russia

post 19-Май-2013 03:27 (спустя 14 часов)

[Цитировать] 

Спаси Господи!!
[Профиль]  [ЛС] 

ikonoaleks

Стаж: 15 дней

Сообщений: 2

Georgia

post 18-Ноя-2016 23:45 (спустя 3 года 5 месяцев)

[Цитировать] 

Благодарю.

_________________
Каждый желающий спастись должен не только не делать зла, но обязан делать добро, как сказано в Священном Писании: Уклонися от зла и сотвори благо (Пс. 33:15).

Преподобный авва Дорофей
[Профиль]  [ЛС] 
Показать сообщения:    
Ответить на тему

Текущее время: 04-Дек 10:01

Часовой пояс: GMT + 4



Вы не можете начинать темы
Вы не можете отвечать на сообщения
Вы не можете редактировать свои сообщения
Вы не можете удалять свои сообщения
Вы не можете голосовать в опросах
Вы не можете прикреплять файлы к сообщениям
Вы не можете скачивать файлы