Loading...
Error

Музыка русского неба. Русские традиционные колокольные звоны (2001) lossless FLAC (image + .cue) + mp3 320 Kbps

Ответить на тему
Статистика раздачи
Скачали: [ 6 ]
   
 
Автор Сообщение

Academic Crack

Администратор

Стаж: 8 лет 2 месяца

Сообщений: 2084

Russia

post 29-Янв-2009 21:29

[Цитировать] 

Музыка русского неба. Русские традиционные колокольные звоны (2001) lossless FLAC (image + .cue) + mp3 320 Kbps
pic
Год выпуска: 2001
Жанр: Колокольные звоны
Производитель диска: ООО "Культурный центр "Русский Дом - Ярославль"
Аудио кодек: FLAC/ mp3
Тип рипа: image+.cue
Битрейт аудио: lossless + mp3 320 Kbps
Исполнитель: Разные исполнители
Продолжительность: 64:48

Треклист:
01. Праздничный звон "во вся тяжкая" 01:27
02. Будничный звон 03:07
03. Трезвон к литургии 04:06
04. Звон к утрене 01:49
05. Водосвятный звон 05:47
06. Встречный звон 04:59
07. Пасхальный звон 03:19
08. Рождественский звон 03:04
09. Рыбинский соборный звон 02:10
10. Ярославский соборный звон 02:55
11. Суздальский соборный звон 07:12
12. Праздничный звон Псково-Печерского монастыря 02:02
13. Московский звон Псково-Печерского монастыря 01:34
14. Софийский звон 02:12
15. Покровский звон 01:18
16. Звон на Чин о панагии московского Данилова монастыря 03:28
17. Егорьевский звон 01:59
18. Калязинский звон 03:33
19. Звон в ростовской традиции 01:13
20. Звон на основе традиций Троице-Сергиевой лавры 01:19
21. Праздничный звон (посвящается игумену Михею) 02:48
22. Вариации на звон игумена Михея 03:19

Внимание!
Кто хочет скачать только лишь mp3, то выбираем соответствующую папку в торренте при добавлении закачки. Кто хочет скачать только lossless - то же самое. контент lossless и lossy идентичны. Кто хочет скачать все - качайте все. Сканы обложек и диска в разрешении 300 dpi, скрины Tau Analyzer (главное окно + спектрограммы треков), а также log-файл EAC приложены к раздаче.

Прослушать сэмпл (по ссылке дождитесь загрузки панельки flash-проигрывателя и кликните на кнопку воспроизведения)

О том, как воспроизводить lossless-форматы на компьютере, читайте здесь.
Лог EAC
Exact Audio Copy V0.99 prebeta 4 from 23. January 2008

Отчёт EAC об извлечении, выполненном 28. января 2009, 3:26

Русские традиционные колокольные звоны / Музыка русского неба

Дисковод: ASUS DRW-1814BL Adapter: 2 ID: 1

Режим чтения : Достоверность
Использование точного потока : Да
Отключение кэша аудио : Да
Использование указателей C2 : Нет

Коррекция смещения при чтении : 6
Способность читать области Lead-in и Lead-out : Нет
Заполнение пропущенных сэмплов тишиной : Да
Удаление блоков с тишиной в начале и конце : Нет
При вычислениях CRC использовались нулевые сэмплы : Да
Интерфейс : Установленный внешний ASPI-интерфейс

Выходной формат : Внутренние WAV-операции
Формат сэмплов : 44.100 Гц; 16 бит; стерео

TOC извлечённого CD

Трек | Старт | Длительность | Начальный сектор | Конечный сектор
---------------------------------------------------------------------
1 | 0:00.00 | 1:27.70 | 0 | 6594
2 | 1:27.70 | 3:07.50 | 6595 | 20669
3 | 4:35.45 | 4:06.16 | 20670 | 39135
4 | 8:41.61 | 1:49.15 | 39136 | 47325
5 | 10:31.01 | 5:47.14 | 47326 | 73364
6 | 16:18.15 | 4:59.14 | 73365 | 95803
7 | 21:17.29 | 3:19.10 | 95804 | 110738
8 | 24:36.39 | 3:04.04 | 110739 | 124542
9 | 27:40.43 | 2:10.43 | 124543 | 134335
10 | 29:51.11 | 2:55.47 | 134336 | 147507
11 | 32:46.58 | 7:12.39 | 147508 | 179946
12 | 39:59.22 | 2:02.58 | 179947 | 189154
13 | 42:02.05 | 1:34.23 | 189155 | 196227
14 | 43:36.28 | 2:12.15 | 196228 | 206142
15 | 45:48.43 | 1:18.45 | 206143 | 212037
16 | 47:07.13 | 3:28.27 | 212038 | 227664
17 | 50:35.40 | 1:59.50 | 227665 | 236639
18 | 52:35.15 | 3:33.14 | 236640 | 252628
19 | 56:08.29 | 1:13.39 | 252629 | 258142
20 | 57:21.68 | 1:19.15 | 258143 | 264082
21 | 58:41.08 | 2:48.27 | 264083 | 276709
22 | 61:29.35 | 3:19.37 | 276710 | 291671

Характеристики диапазона извлечения и сообщения об ошибках

Выбранный диапазон

Имя файла J:\Religion\Русские традиционные колокольные звоны - Музыка русского неба\lossless\CDImage.wav

Пиковый уровень 100.0 %
Качество диапазона 100.0 %
CRC теста 41B94B4C
CRC копии 41B94B4C
Копирование... OK

Ошибок не произошло

AccurateRip: сводка

Трек 1 нет в базе данных
Трек 2 нет в базе данных
Трек 3 нет в базе данных
Трек 4 нет в базе данных
Трек 5 нет в базе данных
Трек 6 нет в базе данных
Трек 7 нет в базе данных
Трек 8 нет в базе данных
Трек 9 нет в базе данных
Трек 10 нет в базе данных
Трек 11 нет в базе данных
Трек 12 нет в базе данных
Трек 13 нет в базе данных
Трек 14 нет в базе данных
Трек 15 нет в базе данных
Трек 16 нет в базе данных
Трек 17 нет в базе данных
Трек 18 нет в базе данных
Трек 19 нет в базе данных
Трек 20 нет в базе данных
Трек 21 нет в базе данных
Трек 22 нет в базе данных

Ни одного трека нет в базе AccurateRip

Конец отчёта
Скрин Tau Analyzer
Надо сказать, что программа Tau Analyzer не выдержала проверку колокольными звонами, и некоторые треки вообще не смогла идентифицировать однозначно.
pic
Если после этого скрина вы засомневались в качестве исходного диска, скачайте из раздачи папку tauscreens. Там лежат скрины спектрограмм всех треков, по которым сразу увидите качество. Разумеется, если это для вас это имеет значение.
Сканы обложек и диска
pic pic pic pic
Download

Войдите для скачивания торрент-файла

Как скачивать  ·   Правила трекера


_________________
pic
pic 100 Мбит/с, pic 100 Мбит/с.
Исправили раздачу? Пишите в личку со ссылкой на раздачу.


Последний раз редактировалось: Academic Crack (2011-03-08 00:18), всего редактировалось 3 раз(а)
[Профиль]  [ЛС] 

Ballbreacker

Стаж: 8 лет

Сообщений: 4

Russia

post 02-Фев-2009 16:36 (спустя 3 дня)

[Цитировать] 

огромное спасибо!
[Профиль]  [ЛС] 

Malkor

post 18-Фев-2009 21:37 (спустя 16 дней)

[Цитировать] 

Спасибо, от всей души.
 

docru

post 13-Мар-2009 22:24 (спустя 23 дня)

[Цитировать] 

Спасибо!
 

mihail61

post 26-Апр-2009 11:09 (спустя 1 месяц 12 дней)

[Цитировать] 

спасибо
 

bart16

post 26-Авг-2009 00:11 (спустя 3 месяца 29 дней)

[Цитировать] 

Спасибо! Храни, Господи!
 

dimsha

post 21-Дек-2009 05:12 (спустя 3 месяца 25 дней)

[Цитировать] 

Благодарю Вас.
Дмитрий.
 

marrk

Стаж: 7 лет 11 месяцев

Сообщений: 2

Russia

post 21-Фев-2010 12:50 (спустя 2 месяца)

[Цитировать] 

Спаси Господи ! научил я и компьютер молиться ))
[Профиль]  [ЛС] 

nega224

Стаж: 7 лет 2 месяца

Сообщений: 52

Russia

post 29-Дек-2010 05:19 (спустя 10 месяцев)

[Цитировать] 

Благодарю
[Профиль]  [ЛС] 

SvetlanaSV

Стаж: 2 года 5 месяцев

Сообщений: 74

post 09-Сен-2014 13:58 (спустя 3 года 8 месяцев)

[Цитировать] 

Спасибо!
[Профиль]  [ЛС] 
Показать сообщения:    
Ответить на тему

Текущее время: 23-Фев 20:10

Часовой пояс: GMT + 4



Вы не можете начинать темы
Вы не можете отвечать на сообщения
Вы не можете редактировать свои сообщения
Вы не можете удалять свои сообщения
Вы не можете голосовать в опросах
Вы не можете прикреплять файлы к сообщениям
Вы не можете скачивать файлы