Loading...
Error

(Церковная музыка и церковные хоры) Сестры Свято-Елисаветинского монастыря - Иисусова Молитва - 2005, FLAC (image + .cue), lossless

Ответить на тему
Статистика раздачи
Скачали: [ 24 ]
   
 
Автор Сообщение

sadhu

Стаж: 8 лет 3 месяца

Сообщений: 55

Russia

post 29-Июл-2010 15:08

[Цитировать] 

Сестры Свято-Елисаветинского монастыря - Иисусова Молитва

pic
Страна: Беларусь
Жанр: Церковная музыка и церковные хоры
Год выпуска: 2005
Формат: FLAC (image + .cue)
Битрейт аудио: lossless
Продолжительность: 50:06

Трэклист:

отсутствует

Дополнительная информация:

Поют сестры Минского Свято-Елизаветинского монастыря.
читают: монахиня Марфа, Илья Кирьянов
log
Exact Audio Copy V0.99 prebeta 5 from 4. May 2009

Отчёт EAC об извлечении, выполненном 29. июля 2010, 14:53

Хор сестер Свято-Елисаветинского монастыря / Иисусова Молитва

Дисковод: TSSTcorpCDDVDW SH-S222A Adapter: 0 ID: 0

Режим чтения : Достоверность
Использование точного потока : Да
Отключение кэша аудио : Да
Использование указателей C2 : Нет

Коррекция смещения при чтении : 6
Способность читать области Lead-in и Lead-out : Нет
Заполнение пропущенных сэмплов тишиной : Да
Удаление блоков с тишиной в начале и конце : Нет
При вычислениях CRC использовались нулевые сэмплы : Да
Интерфейс : Встроенный Win32-интерфейс для Win NT/2000

Выходной формат : Пользовательский кодировщик
Выбранный битрейт : 768 kBit/s
Качество : Высокий
Добавление ID3-тэга : Нет
Утилита сжатия : D:\Exact Audio Copy\FLAC\FLAC.EXE
Дополнительные параметры : -8 -V -T "ARTIST=%a" -T "TITLE=%t" -T "ALBUM=%g" -T "DATE=%y" -T "TRACKNUMBER=%n" -T "GENRE=%m" -T "COMMENT=EAC FLAC -8" %s

TOC извлечённого CD

Трек | Старт | Длительность | Начальный сектор | Конечный сектор
---------------------------------------------------------------------
1 | 0:00.00 | 2:48.28 | 0 | 12627
2 | 2:48.28 | 17:21.47 | 12628 | 90749
3 | 20:10.00 | 2:41.10 | 90750 | 102834
4 | 22:51.10 | 0:45.39 | 102835 | 106248
5 | 23:36.49 | 1:30.27 | 106249 | 113025
6 | 25:07.01 | 22:51.65 | 113026 | 215915
7 | 47:58.66 | 1:21.61 | 215916 | 222051
8 | 49:20.52 | 0:45.05 | 222052 | 225431

Характеристики диапазона извлечения и сообщения об ошибках

Выбранный диапазон

Имя файла D:\Хор сестер Свято-Елисаветинского монастыря - Иисусова Молитва.wav

Пиковый уровень 55.1 %
Качество диапазона 100.0 %
CRC копии C44CFE38
Копирование... OK

Ошибок не произошло

AccurateRip: сводка
Трек 1 нет в базе данных
Трек 2 нет в базе данных
Трек 3 нет в базе данных
Трек 4 нет в базе данных
Трек 5 нет в базе данных
Трек 6 нет в базе данных
Трек 7 нет в базе данных
Трек 8 нет в базе данных
Ни одного трека нет в базе AccurateRip

Конец отчёта
Download

Войдите для скачивания торрент-файла

Как скачивать  ·   Правила трекера

[Профиль]  [ЛС] 

КукА

Стаж: 8 лет 1 месяц

Сообщений: 531

Откуда: Одесса

Ukraine

post 01-Фев-2011 23:49 (спустя 6 месяцев)

[Цитировать] 

Спаси Господь!!!
[Профиль]  [ЛС] 

Владимир Лухов

Стаж: 6 лет 8 месяцев

Сообщений: 108

Откуда: Саратов

Russia

post 16-Мар-2011 19:34 (спустя 1 месяц 14 дней)

[Цитировать] 

Большое спасибо.

_________________
С уважением. Владимир.
[Профиль]  [ЛС] 

depeche1976

Стаж: 4 года 5 месяцев

Сообщений: 7

Ukraine

post 04-Дек-2012 21:23 (спустя 1 год 8 месяцев)

[Цитировать] 

Спаси Вас Господь.

_________________
depeche1111
[Профиль]  [ЛС] 

gavrik.s

Стаж: 5 лет 4 месяца

Сообщений: 85

post 14-Янв-2013 08:52 (спустя 1 месяц 9 дней)

[Цитировать] 

Удивительно, как молятся!
Записи из этого монастыря всегда молитвенны, и записи высокого качества.
Спасибо Всем!
[Профиль]  [ЛС] 

stalker2510

Стаж: 7 лет

Сообщений: 8

Russia

post 23-Янв-2013 01:23 (спустя 8 дней)

[Цитировать] 

Благодарствую Embarassed
[Профиль]  [ЛС] 

vironika

Стаж: 6 лет

Сообщений: 15

post 16-Ноя-2013 13:09 (спустя 9 месяцев)

[Цитировать] 

СПАСИБО!
[Профиль]  [ЛС] 

borzhur

Стаж: 3 года 5 месяцев

Сообщений: 2

Russia

post 25-Ноя-2013 11:55 (спустя 8 дней)

[Цитировать] 

Спаси Господи!
[Профиль]  [ЛС] 

neosacred

Стаж: 2 года 2 месяца

Сообщений: 4

post 04-Окт-2015 12:28 (спустя 1 год 10 месяцев)

[Цитировать] 

Благодарю...
[Профиль]  [ЛС] 

Aleksiy Novikov

Стаж: 2 года

Сообщений: 142

Russia

post 22-Ноя-2015 22:04 (спустя 1 месяц 18 дней)

[Цитировать] 

Благодарю Вас!

_________________
"Но когда надеемся того, чего не видим, тогда ожидаем в терпении" (Рим. 8;25)
[Профиль]  [ЛС] 

людмила-00

Стаж: 1 год 9 месяцев

Сообщений: 7

Russia

post 15-Июл-2016 05:23 (спустя 7 месяцев)

[Цитировать] 

спасибо большое
[Профиль]  [ЛС] 

---!!!

Стаж: 1 год 9 месяцев

Сообщений: 594

Russia

post 17-Июл-2016 11:31 (спустя 2 дня 6 часов)

[Цитировать] 

Спаси Вас Господь.
[Профиль]  [ЛС] 

rsn

Стаж: 5 лет 2 месяца

Сообщений: 30

Ussr

post 27-Фев-2017 22:24 (спустя 7 месяцев)

[Цитировать] 

Благодарствую.
[Профиль]  [ЛС] 
Показать сообщения:    
Ответить на тему

Текущее время: 24-Май 10:01

Часовой пояс: GMT + 4



Вы не можете начинать темы
Вы не можете отвечать на сообщения
Вы не можете редактировать свои сообщения
Вы не можете удалять свои сообщения
Вы не можете голосовать в опросах
Вы не можете прикреплять файлы к сообщениям
Вы не можете скачивать файлы