Loading...
Error

(Церковная музыка и церковные хоры (lossless)) "Нераздельней Троице покланяемся". Малая вечерня с акафистом Пресвятой и Животворящей Троице. - 2007, APE (image + .cue), lossless

Ответить на тему
Статистика раздачи
Скачали: [ 4 ]
   
 
Автор Сообщение

СЕРГУЛЕТ

Стаж: 8 лет

Сообщений: 2639

Откуда: LA ROMANA

Dominicanrep

post 16-Сен-2009 14:15

[Цитировать] 

"Нераздельней Троице покланяемся". Малая вечерня с акафистом Пресвятой и Животворящей Троице.

pic
Страна: Россия. Свято-Троицкая Сергиева Лавра.
Жанр: Церковная музыка и церковные хоры (lossless)
Год выпуска: 2007
Формат: APE (image + .cue)
Битрейт аудио: lossless
Продолжительность: 01:17:55
Обложки
picpicpic
EAC log
Exact Audio Copy V0.99 prebeta 5 from 4. May 2009

Отчёт EAC об извлечении, выполненном 14. сентября 2009, 10:59

Хор ТСЛ / Нераздельней Троице покланяемся

Дисковод: ASUS BC-1205PT Adapter: 1 ID: 0

Режим чтения : Достоверность
Использование точного потока : Да
Отключение кэша аудио : Да
Использование указателей C2 : Нет

Коррекция смещения при чтении : 667
Способность читать области Lead-in и Lead-out : Нет
Заполнение пропущенных сэмплов тишиной : Да
Удаление блоков с тишиной в начале и конце : Нет
При вычислениях CRC использовались нулевые сэмплы : Да
Интерфейс : Встроенный Win32-интерфейс для Win NT/2000

Выходной формат : Внутренние WAV-операции
Формат сэмплов : 44.100 Гц; 16 бит; стерео

TOC извлечённого CD

Трек | Старт | Длительность | Начальный сектор | Конечный сектор
---------------------------------------------------------------------
1 | 0:00.00 | 1:42.25 | 0 | 7674
2 | 1:42.25 | 2:44.20 | 7675 | 19994
3 | 4:26.45 | 4:38.55 | 19995 | 40899
4 | 9:05.25 | 1:30.20 | 40900 | 47669
5 | 10:35.45 | 1:11.00 | 47670 | 52994
6 | 11:46.45 | 0:36.60 | 52995 | 55754
7 | 12:23.30 | 0:57.25 | 55755 | 60054
8 | 13:20.55 | 1:19.40 | 60055 | 66019
9 | 14:40.20 | 1:04.35 | 66020 | 70854
10 | 15:44.55 | 2:21.65 | 70855 | 81494
11 | 18:06.45 | 3:30.30 | 81495 | 97274
12 | 21:37.00 | 1:18.00 | 97275 | 103124
13 | 22:55.00 | 3:03.60 | 103125 | 116909
14 | 25:58.60 | 0:56.35 | 116910 | 121144
15 | 26:55.20 | 1:57.40 | 121145 | 129959
16 | 28:52.60 | 0:57.65 | 129960 | 134299
17 | 29:50.50 | 2:23.45 | 134300 | 145069
18 | 32:14.20 | 0:58.35 | 145070 | 149454
19 | 33:12.55 | 3:07.70 | 149455 | 163549
20 | 36:20.50 | 2:26.55 | 163550 | 174554
21 | 38:47.30 | 0:59.00 | 174555 | 178979
22 | 39:46.30 | 2:58.55 | 178980 | 192384
23 | 42:45.10 | 0:52.45 | 192385 | 196329
24 | 43:37.55 | 2:46.65 | 196330 | 208844
25 | 46:24.45 | 0:54.40 | 208845 | 212934
26 | 47:19.10 | 3:18.25 | 212935 | 227809
27 | 50:37.35 | 1:04.40 | 227810 | 232649
28 | 51:42.00 | 2:47.10 | 232650 | 245184
29 | 54:29.10 | 1:00.60 | 245185 | 249744
30 | 55:29.70 | 2:09.30 | 249745 | 259449
31 | 57:39.25 | 0:43.55 | 259450 | 262729
32 | 58:23.05 | 2:05.30 | 262730 | 272134
33 | 60:28.35 | 1:20.35 | 272135 | 278169
34 | 61:48.70 | 1:18.60 | 278170 | 284079
35 | 63:07.55 | 1:16.20 | 284080 | 289799
36 | 64:24.00 | 3:32.65 | 289800 | 305764
37 | 67:56.65 | 1:20.00 | 305765 | 311764
38 | 69:16.65 | 3:35.00 | 311765 | 327889
39 | 72:51.65 | 5:03.15 | 327890 | 350629

Характеристики диапазона извлечения и сообщения об ошибках

Выбранный диапазон

Имя файла C:\Users\Сергулет\Documents\Хор ТСЛ - Нераздельней Троице покланяемся.wav

Пиковый уровень 93.3 %
Качество диапазона 100.0 %
CRC копии FC2C7AB7
Копирование... OK

Ошибок не произошло

Конец отчёта
Download

Войдите для скачивания торрент-файла

Как скачивать  ·   Правила трекера

[Профиль]  [ЛС] 

kab110870

Стаж: 6 лет 8 месяцев

Сообщений: 8

Откуда: riga

Latvia

post 14-Ноя-2010 22:42 (спустя 1 год 1 месяц)

[Цитировать] 

спаси вас Господи, за все торенты!!
[Профиль]  [ЛС] 

Lelchik37

Стаж: 5 лет 1 месяц

Сообщений: 3

post 01-Янв-2012 16:24 (спустя 1 год 1 месяц)

[Цитировать] 

Спаси Вас Господи!
[Профиль]  [ЛС] 

NIRVANOV2009

Стаж: 6 лет 6 месяцев

Сообщений: 20

post 02-Фев-2013 12:20 (спустя 1 год 1 месяц)

[Цитировать] 

спаси Господи!
[Профиль]  [ЛС] 

RuGaZa

Стаж: 2 года 8 месяцев

Сообщений: 10

Russia

post 19-Авг-2014 18:49 (спустя 1 год 6 месяцев)

[Цитировать] 

Благодарю
[Профиль]  [ЛС] 

Alex Sag

Стаж: 7 лет 9 месяцев

Сообщений: 270

Kazakhstan

post 30-Янв-2015 08:47 (спустя 5 месяцев 10 дней)

[Цитировать] 

Благодарю!

_________________
Alexey
[Профиль]  [ЛС] 
Показать сообщения:    
Ответить на тему

Текущее время: 22-Фев 23:38

Часовой пояс: GMT + 4



Вы не можете начинать темы
Вы не можете отвечать на сообщения
Вы не можете редактировать свои сообщения
Вы не можете удалять свои сообщения
Вы не можете голосовать в опросах
Вы не можете прикреплять файлы к сообщениям
Вы не можете скачивать файлы