Loading...
Error

(Церковная музыка и церковные хоры (lossless).) Митрополит Иларион (Алфеев). "Страсти по Матфею". - 2011, APE (image + .cue), lossless

Страницы:  1, 2  След.

Ответить на тему
Статистика раздачи
Скачали: [ 16 ]
   
 
Автор Сообщение

СЕРГУЛЕТ

Стаж: 8 лет

Сообщений: 2639

Откуда: LA ROMANA

Dominicanrep

post 06-Ноя-2011 16:02

[Цитировать] 

Митрополит Иларион (Алфеев). "Страсти по Матфею".

pic
Страна: Россия. Издательство Московской Патриархии
Жанр: Церковная музыка и церковные хоры (lossless).
Год выпуска: 2011
Формат: APE (image + .cue)
Битрейт аудио: lossless
Продолжительность: 01:16:37
Содержание+Обложки
picpicpicpicpic
EAC log
Exact Audio Copy V1.0 beta 2 from 29. April 2011

Отчёт EAC об извлечении, выполненном 6. ноября 2011, 9:32

Илларион Алфеев / Cтрасти по Матфею

Дисковод: ASUS DRW-2014L1T Adapter: 2 ID: 1

Режим чтения : Достоверность
Использование точного потока : Да
Отключение кэша аудио : Да
Использование указателей C2 : Нет

Коррекция смещения при чтении : 6
Способность читать области Lead-in и Lead-out : Нет
Заполнение пропущенных сэмплов тишиной : Да
Удаление блоков с тишиной в начале и конце : Нет
При вычислениях CRC использовались нулевые сэмплы : Да
Интерфейс : Встроенный Win32-интерфейс для Win NT/2000

Выходной формат : Внутренние WAV-операции
Формат сэмплов : 44.100 Гц; 16 бит; стерео

TOC извлечённого CD

Трек | Старт | Длительность | Начальный сектор | Конечный сектор
---------------------------------------------------------------------
1 | 0:00.00 | 4:30.50 | 0 | 20299
2 | 4:30.50 | 4:26.72 | 20300 | 40321
3 | 8:57.47 | 2:31.60 | 40322 | 51706
4 | 11:29.32 | 1:46.46 | 51707 | 59702
5 | 13:16.03 | 3:54.12 | 59703 | 77264
6 | 17:10.15 | 3:33.10 | 77265 | 93249
7 | 20:43.25 | 4:24.41 | 93250 | 113090
8 | 25:07.66 | 1:40.37 | 113091 | 120627
9 | 26:48.28 | 1:55.10 | 120628 | 129262
10 | 28:43.38 | 4:07.13 | 129263 | 147800
11 | 32:50.51 | 2:10.45 | 147801 | 157595
12 | 35:01.21 | 3:48.36 | 157596 | 174731
13 | 38:49.57 | 3:40.51 | 174732 | 191282
14 | 42:30.33 | 2:33.56 | 191283 | 202813
15 | 45:04.14 | 1:45.29 | 202814 | 210717
16 | 46:49.43 | 3:19.64 | 210718 | 225706
17 | 50:09.32 | 4:24.69 | 225707 | 245575
18 | 54:34.26 | 1:35.73 | 245576 | 252773
19 | 56:10.24 | 4:30.24 | 252774 | 273047
20 | 60:40.48 | 3:44.50 | 273048 | 289897
21 | 64:25.23 | 1:52.26 | 289898 | 298323
22 | 66:17.49 | 5:19.11 | 298324 | 322259
23 | 71:36.60 | 5:00.71 | 322260 | 344830

Характеристики диапазона извлечения и сообщения об ошибках

Выбранный диапазон

Имя файла C:\Илларион Алфеев - Cтрасти по Матфею.wav

Подозрительная позиция 1:16:34

Пиковый уровень 89.1 %
Скорость извлечения 6.1 X
Качество диапазона 99.9 %
CRC копии 1B8024BC
Копирование завершено

Были ошибки

Конец отчёта

==== Контрольная сумма отчёта F6F7ADB0E7BCDC643C094219242E29C79B61FFB9EDA8DEA34BEFBE0204ECACC1 ====
Download

Войдите для скачивания торрент-файла

Как скачивать  ·   Правила трекера

[Профиль]  [ЛС] 

lukina

post 13-Дек-2011 15:05 (спустя 1 месяц 6 дней)

[Цитировать] 

Спасибо! Русский Бах!
 

Дмитрий18121992

Стаж: 6 лет 4 месяца

Сообщений: 7

Russia

post 13-Фев-2012 21:29 (спустя 2 месяца)

[Цитировать] 

Кто-нибудь раздавать будет????????????????? Evil or Very Mad Evil or Very Mad Evil or Very Mad Evil or Very Mad Question Question Question Question Question
[Профиль]  [ЛС] 

Константин1981

Стаж: 5 лет 11 месяцев

Сообщений: 20

Russia

post 26-Фев-2012 00:37 (спустя 12 дней)

[Цитировать] 

Спасибо!!!!!!! Случайно узнал, что Митрополит Иларион пишет такую красивую музыку!!!
[Профиль]  [ЛС] 

vanish_k

Стаж: 4 года 11 месяцев

Сообщений: 7

post 09-Мар-2012 22:58 (спустя 12 дней)

[Цитировать] 

Ауууу... Сиды, вы где, пжл...

Разве нет никого? Аууууууууууууууууууууууу

Спасибо!
[Профиль]  [ЛС] 

Maria_tygr

post 22-Апр-2012 14:20 (спустя 1 месяц 12 дней)

[Цитировать] 

Очень прошу встаньте на раздачу.
 

afara

Стаж: 6 лет 5 месяцев

Сообщений: 197

Moldova

post 05-Май-2012 00:35 (спустя 12 дней)

[Цитировать] 

Во Славу Пресвятой Троицы, Боже наш Слава Тебе. Господи Спаси и Сохрани.

_________________
Господи, Ты - моё сокровище, Ты - моё счастье...
Ты - мой покой, Ты - моя жизнь вечная !
Передаю себя в волю твою.
Сам со мной живи, и Сам говори !

Отдай себя, и Он будет жить с тобою...и говорить будет с тобою...
[Профиль]  [ЛС] 

ptrvz

Стаж: 4 года 9 месяцев

Сообщений: 4

Russia

post 05-Май-2012 20:16 (спустя 19 часов)

[Цитировать] 

Благодарю!
[Профиль]  [ЛС] 

mainstream

Стаж: 7 лет 11 месяцев

Сообщений: 8

post 06-Май-2012 23:34 (спустя 1 день 3 часа)

[Цитировать] 

Диск стоит 200 р. Надеюсь владыка Иларион не будет против, если скачаем...
Пожалуйста оставайтесь на раздаче.
[Профиль]  [ЛС] 

mainstream

Стаж: 7 лет 11 месяцев

Сообщений: 8

post 06-Май-2012 23:36 (спустя 1 минута)

[Цитировать] 

Узнал о произведении благодаря фильму "Дирижёр".
[Профиль]  [ЛС] 

artyes

post 02-Июн-2012 13:11 (спустя 26 дней)

[Цитировать] 

я скачал
куплю обязательно как найду где
спасибо большое
 

Закрытая

Стаж: 5 лет 4 месяца

Сообщений: 236

Откуда: Свердловская обл

Russia

post 28-Июн-2012 15:21 (спустя 26 дней)

[Цитировать] 

А кто исполняет? Почему не написано?

_________________
«Один Господь, одна вера, одно крещение» Еф. 4:5
[Профиль]  [ЛС] 

Damian

Стаж: 7 лет 2 месяца

Сообщений: 1839

Откуда: Донбасс

Russia

post 28-Июн-2012 15:29 (спустя 8 минут)

[Цитировать] 

Закрытая писал(а):

А кто исполняет? Почему не написано?
Раскрываете обложку и читаете (если там написано)

_________________
Помолимся!
[Профиль]  [ЛС] 

Закрытая

Стаж: 5 лет 4 месяца

Сообщений: 236

Откуда: Свердловская обл

Russia

post 28-Июн-2012 15:39 (спустя 10 минут)

[Цитировать] 

Damian писал(а):

Раскрываете обложку и читаете (если там написано)
Так именно что не написано. Confused Есть еще 6 страниц какого-то текста, которые нужно открывать на каком-то похабном сайте, что очень неприятно. Embarassed Разве не должно быть в раздаче четко написано, кто исполнитель? Почему нужно искать с лупой? be

_________________
«Один Господь, одна вера, одно крещение» Еф. 4:5
[Профиль]  [ЛС] 

Damian

Стаж: 7 лет 2 месяца

Сообщений: 1839

Откуда: Донбасс

Russia

post 28-Июн-2012 15:44 (спустя 4 минуты)

[Цитировать] 

Закрытая писал(а):

Разве не должно быть в раздаче четко написано, кто исполнитель? Почему нужно искать с лупой? be
У СЕРГУЛЕТА не было времени этим заняться
Теперь я его адвокат Smile

_________________
Помолимся!
[Профиль]  [ЛС] 
Показать сообщения:    
Ответить на тему

Текущее время: 22-Фев 05:41

Часовой пояс: GMT + 4



Вы не можете начинать темы
Вы не можете отвечать на сообщения
Вы не можете редактировать свои сообщения
Вы не можете удалять свои сообщения
Вы не можете голосовать в опросах
Вы не можете прикреплять файлы к сообщениям
Вы не можете скачивать файлы