Loading...
Error

(Церковная музыка и церковные хоры (lossless).) "Правило ко причащению". Читает иеродиакон Герман (Рябцев) - 2002, APE (image + .cue), lossless

Страницы:  1, 2  След.

Ответить на тему
Статистика раздачи
Качают: [ 1 ]
Скачали: [ 16 ]
   
 
Автор Сообщение

СЕРГУЛЕТ

Стаж: 8 лет

Сообщений: 2639

Откуда: LA ROMANA

Dominicanrep

post 20-Окт-2009 22:51

[Цитировать] 

"Правило ко причащению". Читает иеродиакон Герман (Рябцев)

pic
Страна: Россия. Продюсерский центр Игоря Матвиенко.
Жанр: Церковная музыка и церковные хоры (lossless).
Год выпуска: 2002
Формат: APE (image + .cue)
Битрейт аудио: lossless
Продолжительность: 01:00:43
Трэклист:
1. Начало обычное
2. Три псалма (22, 23, 115)
3. Тропари (глас 8, малый знаменный распев с исоном)
4. Тропарь в Великую Четыредесятницу (глас 8, киевский распев с исоном)
5. Псалом 50
Канон (глас 2, знаменная монодия)
6. Песнь 1
7. Песнь 3
8. Песнь 4
9. Песнь 5
10. Песнь 6
11. Кондак (глас 2, малый знаменный распев с исоном)
12. Песнь 7
13. Песнь 8
14. Песнь 9
15. Достойно есть… (валаамский распев с исоном)
16. Трисвятое по «Отче наш»
17. Тропари (глас 6, обиходный распев, монодия)
18. Господи, помилуй
19. Стихи: «Хотя ясти…»
20. Молитва Василия Великого
21. Молитва Иоанна Златоустого
22. Молитва Симеона Метафраста
23. Молитва иная, того же
24. Молитва Иоанна Дамаскина
25. Молитва Василия Великого, иная
26. Молитва Симеона Нового Богослова
27. Молитва Иоанна Златоустого, иная
28. Молитва иная, того же
29. Молитва иная, того же
30. Молитва Иоанна Дамаскина, иная
31. Молитва Иоанна Златоустого, иная
32. Молитва Симеона Метафраста, иная
33. Молитва «Вечери Твоея…»
34. Стихи: «Боготворящую кровь…»
35. Тропари: «Усладил мя еси…»
36. Молитва «Владыко человеколюбче…»
37. Вечери Твоея (глас 8, знаменный распев с исоном)
Дополнительная информация: Эти молитвы и псалмы помогают человеку достичь покаянного настроения и подготовиться к исповеди. Хорошее «пособие» для говеющих, помогающее осознать собственную греховность, очистить помыслы и сердце, принять в него благодать Св. Духа и в надежде на всепрощающую любовь Божию, на всеочищающую и всеспасительную силу Св.Таин достойно приступить к причастию.
EAC log
Exact Audio Copy V0.99 prebeta 5 from 4. May 2009

Отчёт EAC об извлечении, выполненном 20. октября 2009, 17:40

Иеродиакон Герман (Рябцев) / Правило ко причащению

Дисковод: ASUS BC-1205PT Adapter: 1 ID: 0

Режим чтения : Достоверность
Использование точного потока : Да
Отключение кэша аудио : Да
Использование указателей C2 : Нет

Коррекция смещения при чтении : 667
Способность читать области Lead-in и Lead-out : Нет
Заполнение пропущенных сэмплов тишиной : Да
Удаление блоков с тишиной в начале и конце : Нет
При вычислениях CRC использовались нулевые сэмплы : Да
Интерфейс : Встроенный Win32-интерфейс для Win NT/2000

Выходной формат : Внутренние WAV-операции
Формат сэмплов : 44.100 Гц; 16 бит; стерео

TOC извлечённого CD

Трек | Старт | Длительность | Начальный сектор | Конечный сектор
---------------------------------------------------------------------
1 | 0:00.00 | 2:01.30 | 0 | 9104
2 | 2:01.30 | 2:38.03 | 9105 | 20957
3 | 4:39.33 | 4:01.72 | 20958 | 39104
4 | 8:41.30 | 2:17.56 | 39105 | 49435
5 | 10:59.11 | 1:51.14 | 49436 | 57774
6 | 12:50.25 | 1:39.26 | 57775 | 65225
7 | 14:29.51 | 1:57.49 | 65226 | 74049
8 | 16:27.25 | 1:43.00 | 74050 | 81774
9 | 18:10.25 | 1:38.21 | 81775 | 89145
10 | 19:48.46 | 1:35.53 | 89146 | 96323
11 | 21:24.24 | 0:49.05 | 96324 | 100003
12 | 22:13.29 | 2:15.44 | 100004 | 110172
13 | 24:28.73 | 1:52.52 | 110173 | 118624
14 | 26:21.50 | 2:29.36 | 118625 | 129835
15 | 28:51.11 | 0:43.69 | 129836 | 133129
16 | 29:35.05 | 0:58.63 | 133130 | 137542
17 | 30:33.68 | 1:35.60 | 137543 | 144727
18 | 32:09.53 | 0:46.20 | 144728 | 148197
19 | 32:55.73 | 0:26.02 | 148198 | 150149
20 | 33:22.00 | 3:26.47 | 150150 | 165646
21 | 36:48.47 | 2:36.55 | 165647 | 177401
22 | 39:25.27 | 1:39.73 | 177402 | 184899
23 | 41:05.25 | 4:55.10 | 184900 | 207034
24 | 46:00.35 | 0:48.45 | 207035 | 210679
25 | 46:49.05 | 1:08.38 | 210680 | 215817
26 | 47:57.43 | 4:10.06 | 215818 | 234573
27 | 52:07.49 | 0:45.36 | 234574 | 237984
28 | 52:53.10 | 0:51.57 | 237985 | 241866
29 | 53:44.67 | 1:15.71 | 241867 | 247562
30 | 55:00.63 | 0:55.33 | 247563 | 251720
31 | 55:56.21 | 0:41.12 | 251721 | 254807
32 | 56:37.33 | 0:16.40 | 254808 | 256047
33 | 56:53.73 | 0:18.45 | 256048 | 257442
34 | 57:12.43 | 0:15.48 | 257443 | 258615
35 | 57:28.16 | 0:36.55 | 258616 | 261370
36 | 58:04.71 | 0:28.27 | 261371 | 263497
37 | 58:33.23 | 2:07.59 | 263498 | 273081

Характеристики диапазона извлечения и сообщения об ошибках

Выбранный диапазон

Имя файла C:\Иеродиакон Герман (Рябцев) - Правило ко причащению.wav

Пиковый уровень 100.0 %
Качество диапазона 99.9 %
CRC копии 43112EA4
Копирование... OK

Ошибок не произошло
Конец отчёта
Download

Войдите для скачивания торрент-файла

Как скачивать  ·   Правила трекера



Последний раз редактировалось: СЕРГУЛЕТ (2011-07-10 11:02), всего редактировалось 1 раз
[Профиль]  [ЛС] 

tvtkach

post 19-Фев-2010 19:23 (спустя 3 месяца 29 дней)

[Цитировать] 

Спаси Господи!
 

jaromar

Стаж: 7 лет 1 месяц

Сообщений: 21

Откуда: Краснодар.

Russia

post 20-Фев-2010 01:51 (спустя 6 часов)

[Цитировать] 

Низко кланяюсь в знак благодарности за возможность скачать духовную музыку.
[Профиль]  [ЛС] 

Kotenok_li

Стаж: 6 лет 8 месяцев

Сообщений: 8

Russia

post 23-Сен-2010 22:44 (спустя 7 месяцев)

[Цитировать] 

Огромное спасибо!
[Профиль]  [ЛС] 

sinner7

Стаж: 6 лет 8 месяцев

Сообщений: 242

post 13-Окт-2010 22:44 (спустя 20 дней)

[Цитировать] 

Спаси Господи!
[Профиль]  [ЛС] 

gladdy

Стаж: 7 лет 2 месяца

Сообщений: 11

Russia

post 06-Ноя-2010 22:23 (спустя 23 дня)

[Цитировать] 

спасибо
[Профиль]  [ЛС] 

Владимир Лухов

Стаж: 6 лет 5 месяцев

Сообщений: 105

Откуда: Саратов

Russia

post 08-Ноя-2010 03:21 (спустя 1 день 4 часа)

[Цитировать] 

Спасибо.

_________________
С уважением. Владимир.
[Профиль]  [ЛС] 

+Сергей+

Стаж: 6 лет 2 месяца

Сообщений: 225

Откуда: Москва

Russia

post 28-Дек-2010 19:35 (спустя 1 месяц 20 дней)

[Цитировать] 

Благодарю.
[Профиль]  [ЛС] 

agapit54

Стаж: 7 лет 2 месяца

Сообщений: 280

post 25-Мар-2011 22:42 (спустя 2 месяца 28 дней)

[Цитировать] 

Благодарю вас, СЕРГУЛЕТ. Дай Бог здоровья !
[Профиль]  [ЛС] 

Батюшка Николай

Стаж: 6 лет 3 месяца

Сообщений: 6

Russia

post 04-Дек-2011 21:32 (спустя 8 месяцев)

[Цитировать] 

У меня не воспроизводится никакими проигрывателями почему-то

_________________
Бог - есть любовь.
[Профиль]  [ЛС] 

mi2star

Стаж: 4 года 3 месяца

Сообщений: 10

Russia

post 07-Апр-2014 21:07 (спустя 2 года 4 месяца)

[Цитировать] 

Спаси Господи!
[Профиль]  [ЛС] 

serpantin04

Стаж: 5 лет 3 месяца

Сообщений: 81

Belarus

post 15-Июн-2014 13:01 (спустя 2 месяца 7 дней)

[Цитировать] 

То что надо. Спасибо.
[Профиль]  [ЛС] 

st-0208

Стаж: 1 год 2 месяца

Сообщений: 13

Russia

post 24-Мар-2016 00:23 (спустя 1 год 9 месяцев)

[Цитировать] 

Газку подбавьте, плиз! У меня диск есть лицензионный, но где-то лежит, при переезде, упакованный. Спасибо за раздачу!

_________________
Время, проведенное в на форуме, в счёт жизни не идёт.
[Профиль]  [ЛС] 

Андрей новак

Стаж: 3 года 4 месяца

Сообщений: 5

post 11-Июл-2016 11:36 (спустя 3 месяца 18 дней)

[Цитировать] 

Спаси Господи!
[Профиль]  [ЛС] 

---!!!

Стаж: 1 год 6 месяцев

Сообщений: 437

Russia

post 12-Июл-2016 02:56 (спустя 15 часов)

[Цитировать] 

Спаси Господи!
[Профиль]  [ЛС] 
Показать сообщения:    
Ответить на тему

Текущее время: 26-Фев 16:19

Часовой пояс: GMT + 4



Вы не можете начинать темы
Вы не можете отвечать на сообщения
Вы не можете редактировать свои сообщения
Вы не можете удалять свои сообщения
Вы не можете голосовать в опросах
Вы не можете прикреплять файлы к сообщениям
Вы не можете скачивать файлы