Loading...
Error

Тайна русского слова. Заметки нерусского человека (Ирзабеков В.) [2010, языкознание, WEB-DL]

Ответить на тему
Статистика раздачи
   
 
Автор Сообщение

Иванов.И.И.

Стаж: 1 год 3 месяца

Сообщений: 195

Russia

post 23-Дек-2021 20:27

[Цитировать] 

Тайна русского слова. Заметки нерусского человека

pic
Дата/Год выпуска: 2010
Страна: Россия
Автор и ведущий: Ирзабеков Василий (Фазиль)

Жанр: языкознание
Продолжительность: 53х ~00:25:00
Перевод: не требуется
Субтитры: нет

Аудиодорожка: русская
Телеканал: Союз

Описание: Курс лекций о тайнах русского языка носит подзаголовок «Заметки нерусского человека». Для автора этих заметок Фазиля (в Крещении — Василия) Ирзабекова русский язык стал не просто родным, он стал предметом профессиональной деятельности. Филолог-языковед старается вернуть словам русского языка их первоначальный, исконный смысл. Понять этимологию слов помогает, по мнению ведущего, Евангелие. Каждая беседа — это сразу несколько языковедческих расследований, по уровню интеллектуального накала сопоставимых с разгадкой интереснейших ребусов.

Качество: WEB-DL
Формат: MP4
Видео: AVC MPEG-4, 640х480, 4:3, ~600 kb/s, 25.000 FPS
Аудио: AAC LC, 128 kb/s, 44.1 kHz, 2 channels
MediaInfo
General
Complete name : C:\D\Тайна русского слова (2010)\Тайна русского слова. Выпуск 7.mp4
Format : MPEG-4
Format profile : Base Media
Codec ID : isom (isom/iso2/avc1/mp41)
File size : 137 MiB
Duration : 26 min 9 s
Overall bit rate : 731 kb/s
Writing application : Lavf58.45.100

Video
ID : 1
Format : AVC
Format/Info : Advanced Video Codec
Format profile : Main@L3
Format settings : CABAC / 3 Ref Frames
Format settings, CABAC : Yes
Format settings, Reference fra : 3 frames
Codec ID : avc1
Codec ID/Info : Advanced Video Coding
Duration : 26 min 9 s
Bit rate : 597 kb/s
Width : 640 pixels
Height : 480 pixels
Display aspect ratio : 4:3
Frame rate mode : Constant
Frame rate : 25.000 FPS
Color space : YUV
Chroma subsampling : 4:2:0
Bit depth : 8 bits
Scan type : Progressive
Bits/(Pixel*Frame) : 0.078
Stream size : 112 MiB (82%)
Title : ISO Media file produced by Google Inc. Created on: 12/21/2018.
Codec configuration box : avcC

Audio
ID : 2
Format : AAC LC
Format/Info : Advanced Audio Codec Low Complexity
Codec ID : mp4a-40-2
Duration : 26 min 9 s
Bit rate mode : Constant
Bit rate : 128 kb/s
Channel(s) : 2 channels
Channel layout : L R
Sampling rate : 44.1 kHz
Frame rate : 43.066 FPS (1024 SPF)
Compression mode : Lossy
Stream size : 23.9 MiB (18%)
Title : ISO Media file produced by Google Inc. Created on: 12/21/2018.
Default : Yes
Alternate group : 1
Скриншоты
pic pic
Download

Войдите на сайт, чтобы увидеть полную информацию.

Как скачивать  ·   Правила трекера

[Профиль]  [ЛС] 

CTEHbKA8

Стаж: 3 года 9 месяцев

Сообщений: 12

Russia

post 05-Янв-2022 16:22 (спустя 12 дней)

[Цитировать] 

Рип я бы скачал ))
[Профиль]  [ЛС] 

Иванов.И.И.

Стаж: 1 год 3 месяца

Сообщений: 195

Russia

post 05-Янв-2022 22:59 (спустя 6 часов)

[Цитировать] 

CTEHbKA8
Тут и так видео скромных размеров.
Есть аудио и текстовая версии:
https://pravtor.ru/viewtopic.php?t=10787
https://pravtor.ru/viewtopic.php?t=14454
[Профиль]  [ЛС] 
Показать сообщения:    
Ответить на тему

Текущее время: 26-Янв 09:12

Часовой пояс: GMT + 4



Вы не можете начинать темы
Вы не можете отвечать на сообщения
Вы не можете редактировать свои сообщения
Вы не можете удалять свои сообщения
Вы не можете голосовать в опросах
Вы не можете прикреплять файлы к сообщениям
Вы не можете скачивать файлы