Loading...
Error

(Церковная музыка и церковные хоры (lossless)) «Двунадесятые праздники». "Рождество Христово". Иеродиакон Герман (Рябцев). (2 CD). - 2003, APE (image + .cue), lossless

Ответить на тему
Статистика раздачи
   
 
Автор Сообщение

СЕРГУЛЕТ

Стаж: 8 лет 8 месяцев

Сообщений: 2640

Откуда: LA ROMANA

Dominicanrep

post 15-Фев-2010 14:57

[Цитировать] 

«Двунадесятые праздники». "Рождество Христово". Иеродиакон Герман (Рябцев). (2 CD).

pic
Страна: Россия. Продюсерский центр Игоря Матвиенко.
Жанр: Церковная музыка и церковные хоры (lossless)
Год выпуска: 2003
Формат: APE (image + .cue)
Битрейт аудио: lossless
Продолжительность: 00:39:41+00:42:33
Трэклист:
ДИСК I
На вечерне:
1. Господи, воззвах… [с псалмами] (глас 2****)
2. Стихира на Господи, воззвах…
Господу Иисусу Рождшуся… (глас 2*)
3. Слава, и ныне…
Августу единоначальствующу на земли… (глас 2*)
4. Свете тихий… (глас 2**)
5. Паремии с тропарями **
На повечерии:
6. С нами Бог… (глас 8**)
7. День прешед… (глас 4****)
8. Символ веры

ДИСК II
На утрене:
1. Бог Господь
Тропарь праздника
Рождество Твое, Христе Боже наш… (глас 4******)
2. Полиелей ***
3. Величание **
4. Седален Приидите видим, верни…
5. От юности моея… глас 4 ***/****
6. Чин Евангелия глас 4 ****/**
Канон (глас 1 */**) [Катавасии глас 1, напев Троице-Сергиевой Лавры с исоном]
7. Песнь 1
8. Ипакои (глас 8 *****)
9. Песнь 6
10. Кондак Дева днесь Пресущественнаго раждает… (глас 3******)
Икос Эдем Вифлеем отверзи…
11. Песнь 9
12. Всякое дыхание… (глас 4 ****)
13. Стихира на хвалитех Веселитеся, праведнии… (глас 4 *****)
14. Слава, и ныне…
Стихира Днесь Христос в Вифлееме раждается… (глас 2**)

* знаменный распев
** знаменный распев с исоном
*** валаамский распев
**** валаамский распев с исоном
***** малый знаменный распев с исоном
****** греческий распев с исоном
Дополнительная информация: Чтение Евангелия-иерей Ростислав Перебейнос.
Записано в домашней студии.
2003 год.
EAC log
Exact Audio Copy V0.99 prebeta 5 from 4. May 2009

Отчёт EAC об извлечении, выполненном 14. февраля 2010, 23:44

Иеродиакон Герман (Рябцев) / Рождество Христово-1

Дисковод: ASUS DRW-2014L1T Adapter: 0 ID: 1

Режим чтения : Скоростной

Коррекция смещения при чтении : 6
Способность читать области Lead-in и Lead-out : Нет
Заполнение пропущенных сэмплов тишиной : Да
Удаление блоков с тишиной в начале и конце : Нет
При вычислениях CRC использовались нулевые сэмплы : Да
Интерфейс : Встроенный Win32-интерфейс для Win NT/2000

Выходной формат : Внутренние WAV-операции
Формат сэмплов : 44.100 Гц; 16 бит; стерео

TOC извлечённого CD

Трек | Старт | Длительность | Начальный сектор | Конечный сектор
---------------------------------------------------------------------
1 | 0:00.00 | 3:52.00 | 0 | 17399
2 | 3:52.00 | 1:36.62 | 17400 | 24661
3 | 5:28.62 | 2:44.34 | 24662 | 36995
4 | 8:13.21 | 3:04.04 | 36996 | 50799
5 | 11:17.25 | 13:01.73 | 50800 | 109447
6 | 24:19.23 | 10:31.34 | 109448 | 156806
7 | 34:50.57 | 2:57.04 | 156807 | 170085
8 | 37:47.61 | 1:54.05 | 170086 | 178640

Характеристики диапазона извлечения и сообщения об ошибках

Выбранный диапазон

Копирование прервано

Конец отчёта

cd2.
Exact Audio Copy V0.99 prebeta 5 from 4. May 2009

Отчёт EAC об извлечении, выполненном 14. февраля 2010, 23:47

Иеродиакон Герман (Рябцев) / Рождество Христово-2

Дисковод: ASUS DRW-2014L1T Adapter: 0 ID: 1

Режим чтения : Скоростной

Коррекция смещения при чтении : 6
Способность читать области Lead-in и Lead-out : Нет
Заполнение пропущенных сэмплов тишиной : Да
Удаление блоков с тишиной в начале и конце : Нет
При вычислениях CRC использовались нулевые сэмплы : Да
Интерфейс : Встроенный Win32-интерфейс для Win NT/2000

Выходной формат : Внутренние WAV-операции
Формат сэмплов : 44.100 Гц; 16 бит; стерео

TOC извлечённого CD

Трек | Старт | Длительность | Начальный сектор | Конечный сектор
---------------------------------------------------------------------
1 | 0:00.00 | 2:08.71 | 0 | 9670
2 | 2:08.71 | 1:53.35 | 9671 | 18180
3 | 4:02.31 | 1:05.13 | 18181 | 23068
4 | 5:07.44 | 0:39.02 | 23069 | 25995
5 | 5:46.46 | 0:54.16 | 25996 | 30061
6 | 6:40.62 | 4:54.14 | 30062 | 52125
7 | 11:35.01 | 4:57.37 | 52126 | 74437
8 | 16:32.38 | 1:42.18 | 74438 | 82105
9 | 18:14.56 | 5:07.74 | 82106 | 105204
10 | 23:22.55 | 2:58.54 | 105205 | 118608
11 | 26:21.34 | 8:47.05 | 118609 | 158138
12 | 35:08.39 | 3:05.09 | 158139 | 172022
13 | 38:13.48 | 0:55.24 | 172023 | 176171
14 | 39:08.72 | 3:24.41 | 176172 | 191512

Характеристики диапазона извлечения и сообщения об ошибках

Выбранный диапазон

Имя файла C:\Иеродиакон Герман (Рябцев) - Рождество Христово-2.wav

Проблемы синхронизации 0:00:38

Пиковый уровень 96.6 %
CRC копии 7419184D
Копирование завершено

Ошибок не произошло

Конец отчёта
Download

Войдите на сайт, чтобы увидеть полную информацию.

Как скачивать  ·   Правила трекера

[Профиль]  [ЛС] 

Владимир Лухов

Стаж: 7 лет 1 месяц

Сообщений: 109

Откуда: Саратов

Russia

post 28-Ноя-2010 02:46 (спустя 9 месяцев)

[Цитировать] 

Спасибо.
[Профиль]  [ЛС] 

+Сергей+

Стаж: 6 лет 10 месяцев

Сообщений: 225

Откуда: Москва

Russia

post 28-Дек-2010 19:36 (спустя 1 месяц)

[Цитировать] 

Спасибо.
[Профиль]  [ЛС] 

Idealist

Стаж: 6 лет 6 месяцев

Сообщений: 58

Russia

post 15-Ноя-2011 14:16 (спустя 10 месяцев)

[Цитировать] 

Спаси Господи, за такое доброе дело!
[Профиль]  [ЛС] 

шульц54

Стаж: 4 года 5 месяцев

Сообщений: 6

Russia

post 04-Май-2013 21:05 (спустя 1 год 5 месяцев)

[Цитировать] 

Спасибо
[Профиль]  [ЛС] 

serpantin04

Стаж: 5 лет 11 месяцев

Сообщений: 84

Belarus

post 15-Июн-2014 12:52 (спустя 1 год 1 месяц)

[Цитировать] 

Благодарю.
[Профиль]  [ЛС] 

0304mel

Стаж: 4 года 5 месяцев

Сообщений: 111

Russia

post 20-Окт-2014 20:32 (спустя 4 месяца 5 дней)

[Цитировать] 

Мира и добра Вам!
[Профиль]  [ЛС] 

maslov01

Стаж: 2 года 9 месяцев

Сообщений: 1

Russia

post 13-Янв-2015 17:02 (спустя 2 месяца 23 дня)

[Цитировать] 

Спасибо!
[Профиль]  [ЛС] 

Lifestar

Стаж: 4 года 11 месяцев

Сообщений: 3

Sweden

post 15-Июн-2015 15:58 (спустя 5 месяцев 1 день)

[Цитировать] 

Встаньте, пожалуйста, на раздачу!

_________________
pic
[Профиль]  [ЛС] 

mars1574

Стаж: 3 года 10 месяцев

Сообщений: 33

Russia

post 28-Сен-2017 21:04 (спустя 2 года 3 месяца)

[Цитировать] 

Cпаcибо!
[Профиль]  [ЛС] 
Показать сообщения:    
Ответить на тему

Текущее время: 22-Окт 21:31

Часовой пояс: GMT + 4



Вы не можете начинать темы
Вы не можете отвечать на сообщения
Вы не можете редактировать свои сообщения
Вы не можете удалять свои сообщения
Вы не можете голосовать в опросах
Вы не можете прикреплять файлы к сообщениям
Вы не можете скачивать файлы