Loading...
Error

(Церковная музыка и церковные хоры.) "В память вечную будет праведник". Литургия свт. Иоанна Златоуста знаменного распева. Братский хор Свято-Троицкой Сергиевой Лавры. - 2009, APE (image + .cue) + MP3 320 Кbps.

Ответить на тему
Статистика раздачи
Скачали: [ 4 ]
   
 
Автор Сообщение

СЕРГУЛЕТ

Стаж: 8 лет

Сообщений: 2639

Откуда: LA ROMANA

Dominicanrep

post 29-Авг-2009 18:34

[Цитировать] 

"В память вечную будет праведник". Литургия свт. Иоанна Златоуста знаменного распева. Братский хор Свято-Троицкой Сергиевой Лавры.

pic
Страна: Россия. СТСЛ. Студия звукозаписи "Троицкий Глас".
Жанр: Церковная музыка и церковные хоры.
Год выпуска: 2009
Формат: APE (image + .cue) + MP3
Битрейт аудио: lossless + 320 Kbps
Продолжительность: 01:13:24.
Трэклист:
1. Начало божественной литургии.
2. Великая ектения.
3. Благослови, душе моя, Господа...
4. Малая ектения.
5. Хвали, душе моя,Господа...
6. Единородный Сыне...
7. Малая ектения.
8. Во Царствии Твоем...
9. Прийдите, поклонимся...
10. Тропари и кондаки.
11. Яко свят еси, Боже наш...
12. Трисвятое.
13. Прокимны.
14. Чтение Апостола.
15. Аллилуарий.
16. Чтение Евангелия.
17. Сугубая ектения.
18. Ектения оглашенных.
19. Ектения первая верных.
20. Ектения вторая верных.
21. Херувимская песнь.
22. Просительная ектения.
23. Возлюбим друг друга...
24. Символ веры.
25. Милость мира...
26. Достойно есть...
27. В первых помяни, Господи...
28. Просительная ектения.
29. Отче наш...
30. В память вечную будет праведник...
31. Марие Дево чистая...
32. Со страхом Божиим...
33. Аллилуиа...
34. Спаси, Боже, люди твоя...
35. Да исполнятся уста наша...
36. Прости приимше...,ектения.
37. Отпуст.
38. Великого Господина...
Дополнительная информация: Литургия в обработке В. И. Мартынова и архидиакона Романа (Тамберга), совершенная в Троицком соборе Свято-Троицкой Сергиевой Лавры 25(12) декабря 2007 года, в день памяти святителя Спиридона, епископа Тримифунтского, чудотворца.
Братский хор СТСЛ с участием студентов МДС.
Регент: игумен Глеб (Кожевников).
Дополнительно: В папке lossless выложены flac и cue файлы, в папке mp3 выложены файлы mp3 с битрейтом 320 Kbps.При добавлении закачки выбираем соответствующие папки.
EAC log
Exact Audio Copy V0.99 prebeta 5 from 4. May 2009

Отчёт EAC об извлечении, выполненном 2. сентября 2009, 17:26

Братский хор Свято-Троицкой Сергиевой Лавры. / "В память вечную будет праведник"

Дисковод: ASUS BC-1205PT Adapter: 1 ID: 0

Режим чтения : Достоверность
Использование точного потока : Да
Отключение кэша аудио : Да
Использование указателей C2 : Нет

Коррекция смещения при чтении : 667
Способность читать области Lead-in и Lead-out : Нет
Заполнение пропущенных сэмплов тишиной : Да
Удаление блоков с тишиной в начале и конце : Нет
При вычислениях CRC использовались нулевые сэмплы : Да
Интерфейс : Встроенный Win32-интерфейс для Win NT/2000

Выходной формат : Внутренние WAV-операции
Формат сэмплов : 44.100 Гц; 16 бит; стерео

TOC извлечённого CD

Трек | Старт | Длительность | Начальный сектор | Конечный сектор
---------------------------------------------------------------------
1 | 0:00.00 | 0:29.15 | 0 | 2189
2 | 0:29.15 | 2:47.10 | 2190 | 14724
3 | 3:16.25 | 1:09.65 | 14725 | 19964
4 | 4:26.15 | 0:48.70 | 19965 | 23634
5 | 5:15.10 | 1:21.10 | 23635 | 29719
6 | 6:36.20 | 1:18.50 | 29720 | 35619
7 | 7:54.70 | 0:52.70 | 35620 | 39589
8 | 8:47.65 | 4:10.60 | 39590 | 58399
9 | 12:58.50 | 0:36.20 | 58400 | 61119
10 | 13:34.70 | 5:03.05 | 61120 | 83849
11 | 18:38.00 | 0:56.00 | 83850 | 88049
12 | 19:34.00 | 1:47.25 | 88050 | 96099
13 | 21:21.25 | 1:00.10 | 96100 | 100609
14 | 22:21.35 | 2:13.55 | 100610 | 110639
15 | 24:35.15 | 1:30.45 | 110640 | 117434
16 | 26:05.60 | 2:34.15 | 117435 | 128999
17 | 28:40.00 | 2:33.35 | 129000 | 140509
18 | 31:13.35 | 0:54.10 | 140510 | 144569
19 | 32:07.45 | 0:40.45 | 144570 | 147614
20 | 32:48.15 | 1:34.60 | 147615 | 154724
21 | 34:23.00 | 5:04.05 | 154725 | 177529
22 | 39:27.05 | 2:08.20 | 177530 | 187149
23 | 41:35.25 | 0:56.45 | 187150 | 191394
24 | 42:31.70 | 2:40.65 | 191395 | 203459
25 | 45:12.60 | 5:20.50 | 203460 | 227509
26 | 50:33.35 | 1:18.40 | 227510 | 233399
27 | 51:52.00 | 1:17.40 | 233400 | 239214
28 | 53:09.40 | 2:10.70 | 239215 | 249034
29 | 55:20.35 | 1:53.60 | 249035 | 257569
30 | 57:14.20 | 3:03.15 | 257570 | 271309
31 | 60:17.35 | 4:14.00 | 271310 | 290359
32 | 64:31.35 | 2:19.30 | 290360 | 300814
33 | 66:50.65 | 0:21.05 | 300815 | 302394
34 | 67:11.70 | 0:41.25 | 302395 | 305494
35 | 67:53.20 | 0:28.60 | 305495 | 307654
36 | 68:22.05 | 1:41.10 | 307655 | 315239
37 | 70:03.15 | 1:21.40 | 315240 | 321354
38 | 71:24.55 | 1:59.35 | 321355 | 330314

Характеристики диапазона извлечения и сообщения об ошибках

Выбранный диапазон

Имя файла C:\Users\Сергулет\Documents\Братский хор Свято-Троицкой Сергиевой Лавры. - В память вечную будет праведник.wav

Пиковый уровень 48.4 %
Качество диапазона 99.9 %
CRC копии CBD046B8
Копирование... OK

Ошибок не произошло
Download

Войдите для скачивания торрент-файла

Как скачивать  ·   Правила трекера

[Профиль]  [ЛС] 

СЕРГУЛЕТ

Стаж: 8 лет

Сообщений: 2639

Откуда: LA ROMANA

Dominicanrep

post 02-Сен-2009 17:40 (спустя 3 дня)

[Цитировать] 

Торрент перезалит, добавлен Lossless.
[Профиль]  [ЛС] 

Артемий33

Стаж: 7 лет 5 месяцев

Сообщений: 91

post 03-Сен-2009 00:42 (спустя 7 часов)

[Цитировать] 

Благодарю.
[Профиль]  [ЛС] 

Антон_из_тольятти

post 18-Июл-2010 21:25 (спустя 10 месяцев)

[Цитировать] 

Да, спасибо
 

salamatovn

Стаж: 6 лет 11 месяцев

Сообщений: 28

Russia

post 16-Окт-2010 16:12 (спустя 2 месяца 28 дней)

[Цитировать] 

Прошу, станьте на раздачу!
[Профиль]  [ЛС] 

salamatovn

Стаж: 6 лет 11 месяцев

Сообщений: 28

Russia

post 17-Окт-2010 16:16 (спустя 1 день)

[Цитировать] 

спасибо!
[Профиль]  [ЛС] 

olgish

Стаж: 7 лет

Сообщений: 163

Australia

post 27-Окт-2010 19:07 (спустя 10 дней)

[Цитировать] 

благодарю вас!!
[Профиль]  [ЛС] 

Надежда Вишнякова

Стаж: 6 лет

Сообщений: 21

Откуда: Тамбовская область

post 24-Мар-2011 10:59 (спустя 4 месяца 27 дней)

[Цитировать] 

спаси Господи!
[Профиль]  [ЛС] 

Misha_VM

post 26-Мар-2011 20:21 (спустя 2 дня 9 часов)

[Цитировать] 

Не получается скачивать. Никто не раздает.
 

kursk2009462

Стаж: 6 лет

Сообщений: 33

Russia

post 29-Мар-2011 00:02 (спустя 2 дня 3 часа)

[Цитировать] 

спаси Господи!
[Профиль]  [ЛС] 

Кириченко Денис

Стаж: 5 лет 3 месяца

Сообщений: 88

Kazakhstan

post 10-Дек-2011 12:52 (спустя 8 месяцев)

[Цитировать] 

Спаси и сохрани вас Господь!!!!!
[Профиль]  [ЛС] 

саша3

Стаж: 1 год 10 месяцев

Сообщений: 13

post 30-Апр-2015 21:05 (спустя 3 года 4 месяца)

[Цитировать] 

Спасибо!
[Профиль]  [ЛС] 

Alex Sag

Стаж: 7 лет 8 месяцев

Сообщений: 270

Kazakhstan

post 14-Май-2015 08:29 (спустя 13 дней)

[Цитировать] 

Спаси Господи!

_________________
Alexey
[Профиль]  [ЛС] 
Показать сообщения:    
Ответить на тему

Текущее время: 22-Фев 08:02

Часовой пояс: GMT + 4



Вы не можете начинать темы
Вы не можете отвечать на сообщения
Вы не можете редактировать свои сообщения
Вы не можете удалять свои сообщения
Вы не можете голосовать в опросах
Вы не можете прикреплять файлы к сообщениям
Вы не можете скачивать файлы