Loading...
Error

(Церковная музыка Греции, Афона и Сербии (lossless)) Греко-византийский хор п/у Ликургоса Ангелопулоса. "Византийские песнопения св. Иоанна Кукузела". - 1995, APE (tracks), lossless

Ответить на тему
Статистика раздачи
   
 
Автор Сообщение

СЕРГУЛЕТ

Стаж: 12 лет

Сообщений: 2637

Откуда: LA ROMANA

Dominicanrep

post 11-Окт-2011 11:18

[Цитировать] 

Греко-византийский хор п/у Ликургоса Ангелопулоса - Византийские песнопения св. Иоанна Кукузела
pic
Страна: USA (JADE, BMG Music)
Жанр: Церковная музыка Греции, Афона и Сербии (lossless)
Год выпуска: 1995
Формат: APE (tracks)
Битрейт аудио: lossless
Продолжительность: 01:12:53
Наличие сканов: да
Трэклист:
01. "Then he shall speak to them in his anger...", 1st hemistich of the fifth verse of Psalm 2. Plagal of the 4th mode [0:08:15.70]
02. "He shall grind his teeth and pine away...", from verse 10 of Psalm 111. 4th mode (Papdic Haghia) [0:06:21.42]
03. "Protect, O most glorious...", calophonic stichere for the feast of St Dimitri (26 October). Plagal of the 2nd mode [0:18:25.53]
04. "Bless the Lord...", verse from the so-called "Latran" Polyeleos (Psalm 134), for the Feast of the Holy Archangels. 1st mode [0:07:04.32]
05. Kratima. Plagal of the 4th mode [0:32:58.63]

EAC log
Exact Audio Copy V0.99 prebeta 4 from 23. January 2008

EAC extraction logfile from 5. May 2009, 13:31

Greek Byzantine Choir / Ioannis Koukouzelis, The Byzantine Maestro

Used drive : PLEXTOR DVDR PX-712A Adapter: 5 ID: 0

Read mode : Secure
Utilize accurate stream : Yes
Defeat audio cache : Yes
Make use of C2 pointers : No

Read offset correction : 30
Overread into Lead-In and Lead-Out : No
Fill up missing offset samples with silence : Yes
Delete leading and trailing silent blocks : No
Null samples used in CRC calculations : Yes
Used interface : Native Win32 interface for Win NT & 2000
Gap handling : Appended to previous track

Used output format : Monkey's Audio Lossless Encoder v3.99 DLL
Sample format : Normal Lossless Compression

TOC of the extracted CD

Track | Start | Length | Start sector | End sector
---------------------------------------------------------
1 | 0:00.33 | 8:15.70 | 33 | 37227
2 | 8:16.28 | 6:21.42 | 37228 | 65844
3 | 14:37.70 | 18:25.53 | 65845 | 148772
4 | 33:03.48 | 7:04.32 | 148773 | 180604
5 | 40:08.05 | 32:58.63 | 180605 | 329017

Track 1

Filename F:\Lossless\Greek Byzantine Choir\Ioannis Koukouzelis, The Byzantine Maestro\01 - 'Then he shall speak to them in his anger...', 1st hemistich of the fifth verse of Psalm 2. Plagal of the 4th mode..ape

Pre-gap length 0:00:02.33

Peak level 99.7 %
Track quality 100.0 %
Test CRC 13E33E07
Copy CRC 13E33E07
Copy OK

Track 2

Filename F:\Lossless\Greek Byzantine Choir\Ioannis Koukouzelis, The Byzantine Maestro\02 - 'He shall grind his teeth and pine away...', from verse 10 of Psalm 111. 4th mode (Papdic Haghia)..ape

Peak level 97.7 %
Track quality 99.9 %
Test CRC F741AF96
Copy CRC F741AF96
Copy OK

Track 3

Filename F:\Lossless\Greek Byzantine Choir\Ioannis Koukouzelis, The Byzantine Maestro\03 - 'Protect, O most glorious...', calophonic stichere for the feast of St Dimitri (26 October). Plagal of the 2nd mode..ape

Pre-gap length 0:00:01.25

Peak level 100.0 %
Track quality 100.0 %
Test CRC 774D4ABE
Copy CRC 774D4ABE
Copy OK

Track 4

Filename F:\Lossless\Greek Byzantine Choir\Ioannis Koukouzelis, The Byzantine Maestro\04 - 'Bless the Lord...', verse from the so-called 'Latran' Polyeleos (Psalm 134), for the Feast of the Holy Archangels. 1st mode..ape

Pre-gap length 0:00:09.28

Peak level 99.6 %
Track quality 100.0 %
Test CRC 1C4CD617
Copy CRC 1C4CD617
Copy OK

Track 5

Filename F:\Lossless\Greek Byzantine Choir\Ioannis Koukouzelis, The Byzantine Maestro\05 - Kratima. Plagal of the 4th mode..ape

Pre-gap length 0:00:03.35

Peak level 94.4 %
Track quality 100.0 %
Test CRC 07E8D74B
Copy CRC 07E8D74B
Copy OK

No errors occurred

End of status report

Обложки и содержание
pic pic pic pic pic pic pic pic

Download

Войдите на сайт, чтобы увидеть полную информацию.

Как скачивать  ·   Правила трекера

[Профиль]  [ЛС] 
Показать сообщения:    
Ответить на тему

Текущее время: 27-Фев 15:48

Часовой пояс: GMT + 4



Вы не можете начинать темы
Вы не можете отвечать на сообщения
Вы не можете редактировать свои сообщения
Вы не можете удалять свои сообщения
Вы не можете голосовать в опросах
Вы не можете прикреплять файлы к сообщениям
Вы не можете скачивать файлы