Loading...
Error

(Церковная музыка и церковные хоры (lossless).) Ансамбль Сирин (Sirin Ensemble) - Путник (Poutnik) - 1999, APE (image + .cue), lossless

Ответить на тему
Статистика раздачи
   
 
Автор Сообщение

СЕРГУЛЕТ

Стаж: 12 лет

Сообщений: 2637

Откуда: LA ROMANA

Dominicanrep

post 10-Окт-2011 21:20

[Цитировать] 

Ансамбль Сирин (Sirin Ensemble) - Путник (Poutnik)
pic
Страна: Россия
Жанр: Церковная музыка и церковные хоры (lossless)
Год выпуска: 1999
Формат: APE (image + .cue)
Битрейт аудио: lossless
Продолжительность: 01:04:47
Наличие сканов: да
Трэклист:
01. Уж вы голуби / Ah, doves 2:58
02. Хвалите Господа с небес / Praise the Lord from the Heavens 2:21
03. Стих Святым Первопрестольным Апостолам Петру и Павлу / Verses to the Holy Pri... 3:03
04. Стих Святому Фёдору Тирону / Verses in Honour of Saint Theodore the Tyro 2:01
05. Царю Небесный / O Heavenly king 1:14
06. Стих о Пресветлом Рае / Verses about the Most Brilliant Paradise 2:22
07. Человек живёт на Земле / Man Lives on Earth 4:55
08. Расплачется, растоскуется / The sinful soul laments and moans 3:24
09. В воскресенье рано / Early on Sunday 3:35
10. Когда молод был / When I was young 2:57
11. Житейское море / The sea of life 3:14
12. Господи воззвах / O Lord, I have cried 2:50
13. Сам Един Еси Бессмертный / You Alone Are Immortal 2:47
14. Стих Пресвятой Богородице / Verses to the Most Hole Mother of God 2:52
15. Восстани, лениве / Rise, o lazy man 1:56
16. Стих о страшном суде / Verses on the Last Judgement 2:32
17. Как ходил грешный человече / The sinful man walked through the whole world 3:17
18. Слава в Вышних Богу / May glory be to God in the Highest 2:00
19. Стих Святому Великомученику Георгию / Verses of the Holy Great-Martyr George 1:59
20. Пресветый ангел мой Господень / My most bright angel of the Lord 3:23
21. Христос и нищая братия / Christ and the poor brethren 3:31
22. Заповеди блаженств (к-р Владимир Мартынов) / The Beatitudes (by Vladimir Mart... 5:46

EAC log
Exact Audio Copy V0.99 prebeta 4 from 23. January 2008

Отчёт EAC об извлечении, выполненном 7. декабря 2008, 20:23

Ансамбль Сирин (Sirin Ensemble) / Путник (Poutnik)

Дисковод: HL-DT-STRW/DVD GCC-4244N Adapter: 1 ID: 0

Режим чтения : Достоверность
Использование точного потока : Да
Отключение кэша аудио : Да
Использование указателей C2 : Нет

Коррекция смещения при чтении : 102
Способность читать области Lead-in и Lead-out : Нет
Заполнение пропущенных сэмплов тишиной : Да
Удаление блоков с тишиной в начале и конце : Нет
При вычислениях CRC использовались нулевые сэмплы : Да
Интерфейс : Установленный внешний ASPI-интерфейс

Выходной формат : Monkey's Audio (без потерь)
Выбранный битрейт : Normal Lossless Compression
Качество : Высокий
Добавление ID3-тэга : Да
Утилита сжатия : C:\Program Files\Exact Audio Copy\MAC.exe
Дополнительные параметры : %l--alt-preset 128%l%h--alt-preset standard%h %s %d

TOC извлечённого CD

Трек | Старт | Длительность | Начальный сектор | Конечный сектор
---------------------------------------------------------------------
1 | 0:00.00 | 2:57.30 | 0 | 13304
2 | 2:57.30 | 2:20.25 | 13305 | 23829
3 | 5:17.55 | 3:02.67 | 23830 | 37546
4 | 8:20.47 | 2:00.23 | 37547 | 46569
5 | 10:20.70 | 1:13.50 | 46570 | 52094
6 | 11:34.45 | 2:21.72 | 52095 | 62741
7 | 13:56.42 | 4:55.00 | 62742 | 84866
8 | 18:51.42 | 3:23.08 | 84867 | 100099
9 | 22:14.50 | 3:34.45 | 100100 | 116194
10 | 25:49.20 | 2:56.20 | 116195 | 129414
11 | 28:45.40 | 3:13.65 | 129415 | 143954
12 | 31:59.30 | 2:49.27 | 143955 | 156656
13 | 34:48.57 | 2:46.05 | 156657 | 169111
14 | 37:34.62 | 2:51.05 | 169112 | 181941
15 | 40:25.67 | 1:55.58 | 181942 | 190624
16 | 42:21.50 | 2:31.37 | 190625 | 201986
17 | 44:53.12 | 3:16.22 | 201987 | 216708
18 | 48:09.34 | 1:59.08 | 216709 | 225641
19 | 50:08.42 | 1:58.43 | 225642 | 234534
20 | 52:07.10 | 3:23.00 | 234535 | 249759
21 | 55:30.10 | 3:30.17 | 249760 | 265526
22 | 59:00.27 | 5:45.50 | 265527 | 291451

Характеристики диапазона извлечения и сообщения об ошибках

Выбранный диапазон

Имя файла E:\downloads\Ансамбль Сирин (Sirin Ensemble) - Путник (Poutnik)\CDImage.wav

Пиковый уровень 99.2 %
Качество диапазона 100.0 %
CRC копии B1E08F50
Копирование... OK

Ошибок не произошло

Конец отчёта

Обложки и содержание
pic pic pic pic pic pic pic

Download

Войдите на сайт, чтобы увидеть полную информацию.

Как скачивать  ·   Правила трекера

[Профиль]  [ЛС] 

КукА

Стаж: 12 лет

Сообщений: 554

Откуда: Одесса

Ukraine

post 10-Окт-2011 21:41 (спустя 20 минут)

[Цитировать] 

Спаси Бог!
[Профиль]  [ЛС] 

Елиз

Стаж: 9 лет 5 месяцев

Сообщений: 5

post 15-Авг-2012 16:28 (спустя 10 месяцев)

[Цитировать] 

Благодарю!
[Профиль]  [ЛС] 

gavrik.s

Стаж: 9 лет 3 месяца

Сообщений: 85

post 20-Авг-2012 10:25 (спустя 4 дня)

[Цитировать] 

Спасибо.Это всё-таки скорее народное пение,не церковное(скорее мирское).
По моему рассуждению.
[Профиль]  [ЛС] 
Показать сообщения:    
Ответить на тему

Текущее время: 21-Апр 15:39

Часовой пояс: GMT + 4



Вы не можете начинать темы
Вы не можете отвечать на сообщения
Вы не можете редактировать свои сообщения
Вы не можете удалять свои сообщения
Вы не можете голосовать в опросах
Вы не можете прикреплять файлы к сообщениям
Вы не можете скачивать файлы