Loading...
Error

(Церковная музыка и церковные хоры (lossless)) "Русская духовная музыка" - Хор Омского государственного технического университета - 2004, APE (image + .cue), lossless

Ответить на тему
Статистика раздачи
   
 
Автор Сообщение

СЕРГУЛЕТ

Стаж: 12 лет

Сообщений: 2637

Откуда: LA ROMANA

Dominicanrep

post 06-Июл-2011 13:13

[Цитировать] 

"Русская духовная музыка" - Хор Омского государственного технического университета
pic
Страна: Россия
Жанр: Церковная музыка и церковные хоры (lossless)
Год выпуска: 2004
Формат: APE (image + .cue)
Битрейт аудио: lossless
Наличие сканов: да
Трэклист:
01. Свете тихий - B. Калинников
02. Ныне отпущаеши - B. Калинников
03. Богородице Дево, радуйся - B. Калинников
04. От юности моея - B. Калинников
05. Воскресение Христово видевше - B. Калинников
06. Хвалите Имя Господне - Д. Христов (соло Ю. Блинов)
07. Покаянная молитва о Руси - П. Чайковский
08. Совет привечный - П. Чесноков (соло Е. Смоленцева)
09. Мати Божия - П. Чесноков
10. Ангел вопияше - П. Чесноков (соло Н. Иванилова)
11. Богородице Дево, радуйся - C. Рахманинов
12. Херувимская песнь - А. Архангельский
13. Христос рождается - А.Аллеманов (торжественные ирмосы на Рождество Христово)
14. Добрый Beчip тобi - Рождественская калядка
15. Що то за предиво - Рождественская калядка
16. Ночь тиха - Рождественская калядка
17. Дивная новина - Рождественская калядка
18. Нова радость стала - Рождественская калядка
19. Ныне совершилось - Рождественская калядка
20. Щедрик - Рождественская калядка (обр. Леонтовича)
21. Небо и земля - Рождественская калядка

EAC log
Exact Audio Copy V0.99 prebeta 4 from 23. January 2008

EAC extraction logfile from 18. May 2009, 22:12

Хор Омского государственного технического университета - Вера Попова / Русская духовная музыка

Used drive : Optiarc DVD RW AD-7173S Adapter: 3 ID: 0

Read mode : Secure
Utilize accurate stream : Yes
Defeat audio cache : Yes
Make use of C2 pointers : No

Read offset correction : 48
Overread into Lead-In and Lead-Out : No
Fill up missing offset samples with silence : Yes
Delete leading and trailing silent blocks : No
Null samples used in CRC calculations : Yes
Used interface : Native Win32 interface for Win NT & 2000

Used output format : Internal WAV Routines
Sample format : 44.100 Hz; 16 Bit; Stereo

TOC of the extracted CD

Track | Start | Length | Start sector | End sector
---------------------------------------------------------
1 | 0:00.00 | 2:57.02 | 0 | 13276
2 | 2:57.02 | 2:25.37 | 13277 | 24188
3 | 5:22.39 | 1:15.07 | 24189 | 29820
4 | 6:37.46 | 2:52.02 | 29821 | 42722
5 | 9:29.48 | 4:48.04 | 42723 | 64326
6 | 14:17.52 | 4:04.02 | 64327 | 82628
7 | 18:21.54 | 2:57.03 | 82629 | 95906
8 | 21:18.57 | 2:59.01 | 95907 | 109332
9 | 24:17.58 | 3:24.43 | 109333 | 124675
10 | 27:42.26 | 3:02.21 | 124676 | 138346
11 | 30:44.47 | 2:21.46 | 138347 | 148967
12 | 33:06.18 | 7:10.43 | 148968 | 181260
13 | 40:16.61 | 8:38.43 | 181261 | 220153
14 | 48:55.29 | 2:34.61 | 220154 | 231764
15 | 51:30.15 | 2:57.30 | 231765 | 245069
16 | 54:27.45 | 1:53.50 | 245070 | 253594
17 | 56:21.20 | 1:10.74 | 253595 | 258918
18 | 57:32.19 | 1:43.43 | 258919 | 266686
19 | 59:15.62 | 1:50.64 | 266687 | 275000
20 | 61:06.51 | 1:27.64 | 275001 | 281589
21 | 62:34.40 | 3:47.03 | 281590 | 298617

Range status and errors

Selected range

Filename C:\Temp\!\RDM\Хор Омского государственного технического университета - Вера Попова - Русская духовная музыка.wav

Peak level 100.0 %
Range quality 100.0 %
Test CRC 2CAFCFEC
Copy CRC 2CAFCFEC
Copy OK

No errors occurred

AccurateRip summary
Track 1 not present in database
Track 2 not present in database
Track 3 not present in database
Track 4 not present in database
Track 5 not present in database
Track 6 not present in database
Track 7 not present in database
Track 8 not present in database
Track 9 not present in database
Track 10 not present in database
Track 11 not present in database
Track 12 not present in database
Track 13 not present in database
Track 14 not present in database
Track 15 not present in database
Track 16 not present in database
Track 17 not present in database
Track 18 not present in database
Track 19 not present in database
Track 20 not present in database
Track 21 not present in database
None of the tracks are present in the AccurateRip database

End of status report

Обложки и содержание
pic pic pic pic

Дополнительная информация
Хор Омского государственного технического университета
Художественный руководитель и дирижер Вера Попова
Звукорежиссер Е. Шабанов.

Download

Войдите на сайт, чтобы увидеть полную информацию.

Как скачивать  ·   Правила трекера

[Профиль]  [ЛС] 
Показать сообщения:    
Ответить на тему

Текущее время: 20-Июн 16:25

Часовой пояс: GMT + 4



Вы не можете начинать темы
Вы не можете отвечать на сообщения
Вы не можете редактировать свои сообщения
Вы не можете удалять свои сообщения
Вы не можете голосовать в опросах
Вы не можете прикреплять файлы к сообщениям
Вы не можете скачивать файлы