Loading...
Error

(Церковная музыка и церковные хоры (lossless))"Очисти мя, Спасе..." - Русские духовные песнопения "Ковчег" - 2008, FLAC (image + .cue), lossless

Ответить на тему
Статистика раздачи
   
 
Автор Сообщение

СЕРГУЛЕТ

Стаж: 12 лет

Сообщений: 2637

Откуда: LA ROMANA

Dominicanrep

post 06-Июл-2011 11:14

[Цитировать] 

"Очисти мя, Спасе..." - Русские духовные песнопения "Ковчег"
pic
Страна: Россия
Жанр: Церковная музыка и церковные хоры (lossless)
Год выпуска: 2008
Формат: FLAC (image + .cue)
Битрейт аудио: lossless
Продолжительность: 00:31:53
Наличие сканов: да
Трэклист:
01. Слава во вышних Богу
02. Вскую мя отринул еси (А. Архангельский)
03. К Богородице прилежно (А. Архангельский)
04. Свете тихий (П. Чесноков)
05. Достойно есть (П. Чесноков)
06. Милосердия двери (П. Чесноков)
07. Очисти мя, Спасе (П. Чесноков)
08. Сам един еси бессмертный (П. Чесноков)
09. Гласом моим ко Господу воззвах (А. Архангельский)
10. От юности моея мнози борют мя страсти (М. Максимов)
11. Господи, воззвах к Тебе (М. Ипполитов-Иванов)
12. Вечери твоея тайныя (А. Львов)

EAC log
Exact Audio Copy V0.99 prebeta 4 from 23. January 2008

Отчёт EAC об извлечении, выполненном 31. декабря 2009, 0:31

Ковчег / Очисти мя, Спасе...

Дисковод: HL-DT-STDVD-RAM GSA-H55N Adapter: 0 ID: 1

Режим чтения : Достоверность
Использование точного потока : Да
Отключение кэша аудио : Да
Использование указателей C2 : Нет

Коррекция смещения при чтении : 102
Способность читать области Lead-in и Lead-out : Нет
Заполнение пропущенных сэмплов тишиной : Да
Удаление блоков с тишиной в начале и конце : Нет
При вычислениях CRC использовались нулевые сэмплы : Да
Интерфейс : Встроенный Win32-интерфейс для Win NT/2000

Выходной формат : Внутренние WAV-операции
Формат сэмплов : 44.100 Гц; 16 бит; стерео

TOC извлечённого CD

Трек | Старт | Длительность | Начальный сектор | Конечный сектор
---------------------------------------------------------------------
1 | 0:00.00 | 2:05.25 | 0 | 9399
2 | 2:05.25 | 3:10.14 | 9400 | 23663
3 | 5:15.39 | 2:35.11 | 23664 | 35299
4 | 7:50.50 | 2:22.36 | 35300 | 45985
5 | 10:13.11 | 1:56.35 | 45986 | 54720
6 | 12:09.46 | 1:50.50 | 54721 | 63020
7 | 14:00.21 | 2:23.18 | 63021 | 73763
8 | 16:23.39 | 2:05.46 | 73764 | 83184
9 | 18:29.10 | 5:29.63 | 83185 | 107922
10 | 23:58.73 | 3:12.09 | 107923 | 122331
11 | 27:11.07 | 2:22.74 | 122332 | 133055
12 | 29:34.06 | 2:18.74 | 133056 | 143479

Характеристики диапазона извлечения и сообщения об ошибках

Выбранный диапазон

Имя файла G:\Мой музык\KOVCHEG\Очисти мя, Спасе\Ковчег - Очисти мя, Спасе....wav

Пиковый уровень 100.0 %
Качество диапазона 100.0 %
CRC копии 51E35A22
Копирование... OK

Ошибок не произошло

AccurateRip: сводка
Трек 1 нет в базе данных
Трек 2 нет в базе данных
Трек 3 нет в базе данных
Трек 4 нет в базе данных
Трек 5 нет в базе данных
Трек 6 нет в базе данных
Трек 7 нет в базе данных
Трек 8 нет в базе данных
Трек 9 нет в базе данных
Трек 10 нет в базе данных
Трек 11 нет в базе данных
Трек 12 нет в базе данных
Ни одного трека нет в базе AccurateRip

Конец отчёта

Обложки и содержание
pic pic

Download

Войдите на сайт, чтобы увидеть полную информацию.

Как скачивать  ·   Правила трекера

[Профиль]  [ЛС] 

gavrik.s

Стаж: 9 лет 3 месяца

Сообщений: 85

post 17-Фев-2012 22:12 (спустя 7 месяцев)

[Цитировать] 

Красивые голоса.Но мирское,не молитвенное что-ли...
За раздачу спасибо.
[Профиль]  [ЛС] 

Ирина Пронина

Стаж: 6 лет 4 месяца

Сообщений: 2

post 28-Мар-2021 15:33 (спустя 9 лет 1 месяц)

[Цитировать] 

Спаси Господи!
[Профиль]  [ЛС] 
Показать сообщения:    
Ответить на тему

Текущее время: 21-Апр 14:04

Часовой пояс: GMT + 4



Вы не можете начинать темы
Вы не можете отвечать на сообщения
Вы не можете редактировать свои сообщения
Вы не можете удалять свои сообщения
Вы не можете голосовать в опросах
Вы не можете прикреплять файлы к сообщениям
Вы не можете скачивать файлы