Loading...
Error

(Акафисты, каноны, молебны (lossless).) "Служба Святым Царственным Мученикам". Составитель Анатолий Конотоп. - 2000, APE (image + .cue), lossless

Ответить на тему
Статистика раздачи
   
 
Автор Сообщение

СЕРГУЛЕТ

Стаж: 8 лет 7 месяцев

Сообщений: 2640

Откуда: LA ROMANA

Dominicanrep

post 06-Июл-2011 00:09

[Цитировать] 

"Служба Святым Царственным Мученикам". Составитель Анатолий Конотоп.

pic
Страна: Россия. Анатолий Конотоп.
Жанр: Акафисты, каноны, молебны (lossless).
Год выпуска: 2000
Формат: APE (image + .cue)
Битрейт аудио: lossless
Продолжительность: 01:13:38
Содержание+Обложка
picpicpic
EAC log
Exact Audio Copy V1.0 beta 2 from 29. April 2011

Отчёт EAC об извлечении, выполненном 5. июля 2011, 21:53

Хор МПТСЛ / Служба Царственным мученикам

Дисковод: ASUS DRW-2014L1T Adapter: 2 ID: 1

Режим чтения : Достоверность
Использование точного потока : Да
Отключение кэша аудио : Да
Использование указателей C2 : Нет

Коррекция смещения при чтении : 6
Способность читать области Lead-in и Lead-out : Нет
Заполнение пропущенных сэмплов тишиной : Да
Удаление блоков с тишиной в начале и конце : Нет
При вычислениях CRC использовались нулевые сэмплы : Да
Интерфейс : Встроенный Win32-интерфейс для Win NT/2000

Выходной формат : Внутренние WAV-операции
Формат сэмплов : 44.100 Гц; 16 бит; стерео

TOC извлечённого CD

Трек | Старт | Длительность | Начальный сектор | Конечный сектор
---------------------------------------------------------------------
1 | 0:00.00 | 5:29.08 | 0 | 24682
2 | 5:29.08 | 3:17.63 | 24683 | 39520
3 | 8:46.71 | 4:44.11 | 39521 | 60831
4 | 13:31.07 | 3:20.00 | 60832 | 75831
5 | 16:51.07 | 2:39.13 | 75832 | 87769
6 | 19:30.20 | 3:02.09 | 87770 | 101428
7 | 22:32.29 | 4:24.51 | 101429 | 121279
8 | 26:57.05 | 3:01.74 | 121280 | 134928
9 | 29:59.04 | 1:59.56 | 134929 | 143909
10 | 31:58.60 | 2:48.29 | 143910 | 156538
11 | 34:47.14 | 4:19.51 | 156539 | 176014
12 | 39:06.65 | 3:54.34 | 176015 | 193598
13 | 43:01.24 | 2:19.25 | 193599 | 204048
14 | 45:20.49 | 2:22.01 | 204049 | 214699
15 | 47:42.50 | 2:16.34 | 214700 | 224933
16 | 49:59.09 | 3:11.30 | 224934 | 239288
17 | 53:10.39 | 2:32.33 | 239289 | 250721
18 | 55:42.72 | 4:02.25 | 250722 | 268896
19 | 59:45.22 | 4:02.58 | 268897 | 287104
20 | 63:48.05 | 1:14.59 | 287105 | 292713
21 | 65:02.64 | 2:19.12 | 292714 | 303150
22 | 67:22.01 | 2:59.04 | 303151 | 316579
23 | 70:21.05 | 3:15.43 | 316580 | 331247

Характеристики диапазона извлечения и сообщения об ошибках

Выбранный диапазон

Имя файла C:\Хор МПТСЛ - Служба Царственным мученикам.wav

Пиковый уровень 30.1 %
Скорость извлечения 5.0 X
Качество диапазона 99.9 %
CRC копии 7FDC3846
Копирование... OK

Ошибок не произошло

Конец отчёта

==== Контрольная сумма отчёта 75FDAF67C3FCC329591E3332809BA8CD91C4640C012518C39921DE44F1AD4859 ====
Дополнительная информация: Мужской хор Московского подворья Свято-Троице Сергиевой Лавры. Регент Владимир Горбик.
Место записи: Храм свт. Николая. (г. Беловеж. Польша).
Download

Войдите на сайт, чтобы увидеть полную информацию.

Как скачивать  ·   Правила трекера

[Профиль]  [ЛС] 

rostik

Стаж: 8 лет 6 месяцев

Сообщений: 42

Откуда: Днепропетровск

Ukraine

post 28-Сен-2011 00:37 (спустя 2 месяца 22 дня)

[Цитировать] 

Храни Вас Господь! +
Спасибо за ценный диск!
[Профиль]  [ЛС] 

Cectra

Стаж: 8 лет 5 месяцев

Сообщений: 26

Russia

post 09-Ноя-2012 15:44 (спустя 1 год 1 месяц)

[Цитировать] 

Спасибо за диск!
[Профиль]  [ЛС] 
Показать сообщения:    
Ответить на тему

Текущее время: 19-Сен 19:24

Часовой пояс: GMT + 4



Вы не можете начинать темы
Вы не можете отвечать на сообщения
Вы не можете редактировать свои сообщения
Вы не можете удалять свои сообщения
Вы не можете голосовать в опросах
Вы не можете прикреплять файлы к сообщениям
Вы не можете скачивать файлы