Loading...
Error

(Церковная музыка Греции, Афона и Сербии (lossless)) "Мъжкия хор при столичен храм ''Света Неделя''. Служба на Света Великомъченица Неделя. - 2010, APE (image + .cue), lossless

Ответить на тему
Статистика раздачи
   
 
Автор Сообщение

СЕРГУЛЕТ

Стаж: 8 лет 7 месяцев

Сообщений: 2640

Откуда: LA ROMANA

Dominicanrep

post 05-Июл-2011 13:13

[Цитировать] 

"Мъжкия хор при столичен храм ''Света Неделя''. Служба на Света Великомъченица Неделя.

pic
Страна: Болгария
Жанр: Церковная музыка Греции, Афона и Сербии (lossless)
Год выпуска: 2010
Формат: APE (image + .cue)
Битрейт аудио: lossless
Продолжительность: 00:58:38
Трэклист:
1. Господи воззвах /глас 2/
2. Стихира на Господи воззвах /глас 2/
3. Слава на Господи воззвах /глас 6/
4. И ныне ... 1-ви Богородичен (Догматик) /глас 6/
5. Стиховна стихира /глас 4/
6. Слава на стиховните стихири /глас 2/
7. И ныне ... 2-ри Богородичен /глас 2/
8. Тропар Слава ... и ныне ... 3-ти Богородичен /глас 3/
9. Величание на Света Неделя /глас 6/
10. Стихира след 50-ти псалом /глас 2/
11. Общи катавасии и Честнейшую херувим /глас 4/
12. Светилен на Света Неделя /глас 3/
13. Всякое дихание /глас 8/
14. Хвалитна стихира /глас 8/
15. Слава на хвалитните /глас 8/
16. И ныне... Празничен Богородичен /глас 8/
17. Велико Славословие /глас 8/
EAC log
Exact Audio Copy V1.0 beta 1 from 15. November 2010

Отчёт EAC об извлечении, выполненном 7. апреля 2011, 18:31

Мъжкия хор при столичен храм "Света Неделя" / Служба на Света Великомъченица Неделя

Дисковод: TS8XDVDRTranscend Adapter: 5 ID: 0

Режим чтения : Достоверность
Использование точного потока : Да
Отключение кэша аудио : Да
Использование указателей C2 : Нет

Коррекция смещения при чтении : 6
Способность читать области Lead-in и Lead-out : Нет
Заполнение пропущенных сэмплов тишиной : Да
Удаление блоков с тишиной в начале и конце : Нет
При вычислениях CRC использовались нулевые сэмплы : Да
Интерфейс : Встроенный Win32-интерфейс для Win NT/2000

Выходной формат : Пользовательский кодировщик
Выбранный битрейт : 1024 kBit/s
Качество : Высокий
Добавление ID3-тэга : Нет
Утилита сжатия : C:\Program Files\wavpack-4.60.1\wavpack.exe
Дополнительные параметры : -h %s %d

TOC извлечённого CD

Трек | Старт | Длительность | Начальный сектор | Конечный сектор
---------------------------------------------------------------------
1 | 0:00.00 | 3:25.15 | 0 | 15389
2 | 3:25.15 | 2:23.50 | 15390 | 26164
3 | 5:48.65 | 4:25.07 | 26165 | 46046
4 | 10:13.72 | 4:27.44 | 46047 | 66115
5 | 14:41.41 | 1:14.05 | 66116 | 71670
6 | 15:55.46 | 2:47.29 | 71671 | 84224
7 | 18:43.00 | 1:31.11 | 84225 | 91060
8 | 20:14.11 | 2:13.40 | 91061 | 101075
9 | 22:27.51 | 3:29.22 | 101076 | 116772
10 | 25:56.73 | 4:17.24 | 116773 | 136071
11 | 30:14.22 | 5:18.54 | 136072 | 159975
12 | 35:33.01 | 1:25.52 | 159976 | 166402
13 | 36:58.53 | 2:16.25 | 166403 | 176627
14 | 39:15.03 | 1:59.54 | 176628 | 185606
15 | 41:14.57 | 4:21.49 | 185607 | 205230
16 | 45:36.31 | 0:35.03 | 205231 | 207858
17 | 46:11.34 | 12:26.72 | 207859 | 263880

Характеристики диапазона извлечения и сообщения об ошибках

Выбранный диапазон

Имя файла C:\Users\Артём\Desktop\Мъжкия хор при столичен храм ''Света Неделя'' - Служба на Света Великомъченица Неделя\Мъжкия хор при столичен храм ''Света Неделя'' - Служба на Света Великомъченица Неделя.wav

Пиковый уровень 88.1 %
0.9 X
Качество диапазона 100.0 %
CRC теста FA82DB3A
CRC копии FA82DB3A
Копирование... OK

Ошибок не произошло

Конец отчёта
Download

Войдите на сайт, чтобы увидеть полную информацию.

Как скачивать  ·   Правила трекера

[Профиль]  [ЛС] 

Alex Sag

Стаж: 8 лет 4 месяца

Сообщений: 281

Kazakhstan

post 30-Янв-2015 09:16 (спустя 3 года 6 месяцев)

[Цитировать] 

Благодарю! Спаси Господи!

_________________
Alexey
[Профиль]  [ЛС] 
Показать сообщения:    
Ответить на тему

Текущее время: 25-Сен 04:56

Часовой пояс: GMT + 4



Вы не можете начинать темы
Вы не можете отвечать на сообщения
Вы не можете редактировать свои сообщения
Вы не можете удалять свои сообщения
Вы не можете голосовать в опросах
Вы не можете прикреплять файлы к сообщениям
Вы не можете скачивать файлы