Loading...
Error

(Акафисты, каноны, молебны (lossless)) Акафист Преподобному Сергию Радонежскому. Праздничный мужской хор Данилова монастыря. - 2011, APE (image + .cue), lossless

Ответить на тему
Статистика раздачи
   
 
Автор Сообщение

СЕРГУЛЕТ

Стаж: 8 лет 8 месяцев

Сообщений: 2640

Откуда: LA ROMANA

Dominicanrep

post 18-Июн-2011 12:54

[Цитировать] 

Акафист Преподобному Сергию Радонежскому. Праздничный мужской хор Данилова монастыря.

pic
Страна: Россия. Данилов монастырь.
Жанр: Акафисты, каноны, молебны (lossless)
Год выпуска: 2011
Формат: APE (image + .cue)
Битрейт аудио: lossless
Продолжительность: 00:58:29
Обложки+Содержание
picpic
EAC log
Exact Audio Copy V0.99 prebeta 5 from 4. May 2009

Отчёт EAC об извлечении, выполненном 17. июня 2011, 23:13

Хор Данилова монастыря / Акафист прп. Сергию Радонежскому

Дисковод: ASUS DRW-2014L1T Adapter: 2 ID: 1

Режим чтения : Достоверность
Использование точного потока : Да
Отключение кэша аудио : Да
Использование указателей C2 : Нет

Коррекция смещения при чтении : 6
Способность читать области Lead-in и Lead-out : Нет
Заполнение пропущенных сэмплов тишиной : Да
Удаление блоков с тишиной в начале и конце : Нет
При вычислениях CRC использовались нулевые сэмплы : Да
Интерфейс : Встроенный Win32-интерфейс для Win NT/2000

Выходной формат : Внутренние WAV-операции
Формат сэмплов : 44.100 Гц; 16 бит; стерео

TOC извлечённого CD

Трек | Старт | Длительность | Начальный сектор | Конечный сектор
---------------------------------------------------------------------
1 | 0:00.00 | 1:28.00 | 0 | 6599
2 | 1:28.00 | 1:41.18 | 6600 | 14192
3 | 3:09.18 | 1:54.02 | 14193 | 22744
4 | 5:03.20 | 1:59.42 | 22745 | 31711
5 | 7:02.62 | 8:08.57 | 31712 | 68368
6 | 15:11.44 | 8:44.31 | 68369 | 107699
7 | 23:56.00 | 8:12.62 | 107700 | 144661
8 | 32:08.62 | 9:45.71 | 144662 | 188607
9 | 41:54.58 | 3:35.62 | 188608 | 204794
10 | 45:30.45 | 3:29.64 | 204795 | 220533
11 | 49:00.34 | 3:35.28 | 220534 | 236686
12 | 52:35.62 | 2:48.39 | 236687 | 249325
13 | 55:24.26 | 1:30.41 | 249326 | 256116
14 | 56:54.67 | 1:41.16 | 256117 | 263707

Характеристики диапазона извлечения и сообщения об ошибках

Выбранный диапазон

Имя файла C:\Users\Сергей\Desktop\Хор Данилова монастыря - Акафист прп. Сергию Радонежскому.wav

Пиковый уровень 98.8 %
Качество диапазона 100.0 %
CRC копии F05B3BB9
Копирование... OK

Ошибок не произошло

AccurateRip: сводка
Трек 1 точность не определена (достоверность 1) [582C569A], AccurateRip вернул [8147FA72]
Трек 2 точность не определена (достоверность 1) [83F934E2], AccurateRip вернул [7EB9EE57]
Трек 3 точность не определена (достоверность 1) [4E41813E], AccurateRip вернул [4D04186B]
Трек 4 точность не определена (достоверность 1) [99340068], AccurateRip вернул [214D4935]
Трек 5 точность не определена (достоверность 1) [5286FCC8], AccurateRip вернул [8DE552DA]
Трек 6 точность не определена (достоверность 1) [BC3E5BAD], AccurateRip вернул [DA142B56]
Трек 7 точность не определена (достоверность 1) [617A837F], AccurateRip вернул [F27590A8]
Трек 8 точность не определена (достоверность 1) [6C2439C2], AccurateRip вернул [515B1A34]
Трек 9 точность не определена (достоверность 1) [17015AE4], AccurateRip вернул [F64B7D23]
Трек 10 точность не определена (достоверность 1) [F2D2AAF6], AccurateRip вернул [D8566A6A]
Трек 11 точность не определена (достоверность 1) [438C6AEA], AccurateRip вернул [62FEA8AC]
Трек 12 точность не определена (достоверность 1) [67A3F503], AccurateRip вернул [458410D1]
Трек 13 точность не определена (достоверность 1) [2093ACDD], AccurateRip вернул [B1B81F4E]
Трек 14 точность не определена (достоверность 1) [E14B96E7], AccurateRip вернул [49538767]
Ни один трек не прошёл проверки на точность
В вашей базе может быть иной вариант штамповки диска

Конец отчёта
Download

Войдите на сайт, чтобы увидеть полную информацию.

Как скачивать  ·   Правила трекера

[Профиль]  [ЛС] 

Царевна196

post 21-Июл-2011 00:59 (спустя 1 месяц 2 дня)

[Цитировать] 

Спасибо!
 

anatolzzz

post 25-Дек-2011 04:49 (спустя 5 месяцев 4 дня)

[Цитировать] 

Спасибо!
 

Oltenrial

Стаж: 5 лет 9 месяцев

Сообщений: 4

post 22-Окт-2012 14:28 (спустя 9 месяцев)

[Цитировать] 

Спаси Господи!
[Профиль]  [ЛС] 

Misail

Стаж: 6 лет 6 месяцев

Сообщений: 9

post 29-Дек-2016 20:25 (спустя 4 года 2 месяца)

[Цитировать] 

Спаси Христос!!!!
[Профиль]  [ЛС] 
Показать сообщения:    
Ответить на тему

Текущее время: 24-Окт 13:35

Часовой пояс: GMT + 4



Вы не можете начинать темы
Вы не можете отвечать на сообщения
Вы не можете редактировать свои сообщения
Вы не можете удалять свои сообщения
Вы не можете голосовать в опросах
Вы не можете прикреплять файлы к сообщениям
Вы не можете скачивать файлы