Loading...
Error

(Акафисты, каноны, молебны (lossless).) Акафист святителю Спиридону Тримифунтскому. - 2010, APE (image + .cue), lossless

Ответить на тему
Статистика раздачи
   
 
Автор Сообщение

СЕРГУЛЕТ

Стаж: 8 лет 7 месяцев

Сообщений: 2640

Откуда: LA ROMANA

Dominicanrep

post 18-Июн-2011 11:50

[Цитировать] 

Акафист святителю Спиридону Тримифунтскому.

pic
Страна: Россия. Данилов монастырь.
Жанр: Акафисты, каноны, молебны (lossless).
Год выпуска: 2010
Формат: APE (image + .cue)
Битрейт аудио: lossless
Продолжительность: 00:50:37
Праздничный мужской хор Московского Данилова монастыря.
Обложки+Содержание
picpic
EAC log
Exact Audio Copy V0.99 prebeta 5 from 4. May 2009

Отчёт EAC об извлечении, выполненном 17. июня 2011, 23:26

Хор Данилова монастыря. / Акафист свт. Спиридону Тримифунтскому.

Дисковод: ASUS DRW-2014L1T Adapter: 2 ID: 1

Режим чтения : Достоверность
Использование точного потока : Да
Отключение кэша аудио : Да
Использование указателей C2 : Нет

Коррекция смещения при чтении : 6
Способность читать области Lead-in и Lead-out : Нет
Заполнение пропущенных сэмплов тишиной : Да
Удаление блоков с тишиной в начале и конце : Нет
При вычислениях CRC использовались нулевые сэмплы : Да
Интерфейс : Встроенный Win32-интерфейс для Win NT/2000

Выходной формат : Внутренние WAV-операции
Формат сэмплов : 44.100 Гц; 16 бит; стерео

TOC извлечённого CD

Трек | Старт | Длительность | Начальный сектор | Конечный сектор
---------------------------------------------------------------------
1 | 0:00.00 | 1:33.20 | 0 | 6994
2 | 1:33.20 | 1:53.63 | 6995 | 15532
3 | 3:27.08 | 1:13.59 | 15533 | 21066
4 | 4:40.67 | 0:45.46 | 21067 | 24487
5 | 5:26.38 | 7:25.67 | 24488 | 57929
6 | 12:52.30 | 7:45.41 | 57930 | 92845
7 | 20:37.71 | 8:12.58 | 92846 | 129803
8 | 28:50.54 | 8:18.22 | 129804 | 167175
9 | 37:09.01 | 1:47.74 | 167176 | 175274
10 | 38:57.00 | 2:50.25 | 175275 | 188049
11 | 41:47.25 | 3:58.64 | 188050 | 205963
12 | 45:46.14 | 2:10.04 | 205964 | 215717
13 | 47:56.18 | 1:29.19 | 215718 | 222411
14 | 49:25.37 | 1:45.00 | 222412 | 230286

Характеристики диапазона извлечения и сообщения об ошибках

Выбранный диапазон

Имя файла C:\Users\Сергей\Desktop\Хор Данилова монастыря. - Акафист свт. Спиридону Тримифунтскому..wav

Пиковый уровень 100.0 %
Качество диапазона 100.0 %
CRC копии C8211027
Копирование... OK

Ошибок не произошло

Конец отчёта
Download

Войдите на сайт, чтобы увидеть полную информацию.

Как скачивать  ·   Правила трекера

[Профиль]  [ЛС] 

Царевна196

post 19-Июл-2011 01:06 (спустя 1 месяц)

[Цитировать] 

Пожалуйста! Встаньте на раздачу
 
Показать сообщения:    
Ответить на тему

Текущее время: 23-Сен 11:18

Часовой пояс: GMT + 4



Вы не можете начинать темы
Вы не можете отвечать на сообщения
Вы не можете редактировать свои сообщения
Вы не можете удалять свои сообщения
Вы не можете голосовать в опросах
Вы не можете прикреплять файлы к сообщениям
Вы не можете скачивать файлы