Loading...
Error

(Церковная музыка и церковные хоры (lossless).) "Верю, надеюсь, люблю...". Дмитрий Белосельский и Хор Московского Сретенского монастыря. - 2010, APE (image + .cue), lossless

Ответить на тему
Статистика раздачи
   
 
Автор Сообщение

СЕРГУЛЕТ

Стаж: 11 лет

Сообщений: 2637

Откуда: LA ROMANA

Dominicanrep

post 19-Май-2011 22:17

[Цитировать] 

"Верю, надеюсь, люблю...". Дмитрий Белосельский и Хор Московского Сретенского монастыря.

pic
Страна: Россия. Сретенский монастырь.
Жанр: Церковная музыка и церковные хоры (lossless).
Год выпуска: 2010
Формат: APE (image + .cue)
Битрейт аудио: lossless
Продолжительность: 01:09:11
Содержание+ Обложки
picpicpicpicpic
EAC log
Exact Audio Copy V1.0 beta 1 from 15. November 2010

Отчёт EAC об извлечении, выполненном 19. мая 2011, 15:58

Димитрий Белосельский и хор / Верю надеюсь люблю...

Дисковод: HL-DT-STDVDRAM GE20NU10 Adapter: 5 ID: 0

Режим чтения : Достоверность
Использование точного потока : Да
Отключение кэша аудио : Да
Использование указателей C2 : Нет

Коррекция смещения при чтении : 667
Способность читать области Lead-in и Lead-out : Нет
Заполнение пропущенных сэмплов тишиной : Да
Удаление блоков с тишиной в начале и конце : Нет
При вычислениях CRC использовались нулевые сэмплы : Да
Интерфейс : Встроенный Win32-интерфейс для Win NT/2000

Выходной формат : Внутренние WAV-операции
Формат сэмплов : 44.100 Гц; 16 бит; стерео

TOC извлечённого CD

Трек | Старт | Длительность | Начальный сектор | Конечный сектор
---------------------------------------------------------------------
1 | 0:00.00 | 4:01.23 | 0 | 18097
2 | 4:01.23 | 2:30.06 | 18098 | 29353
3 | 6:31.29 | 3:37.06 | 29354 | 45634
4 | 10:08.35 | 1:47.46 | 45635 | 53705
5 | 11:56.06 | 6:13.61 | 53706 | 81741
6 | 18:09.67 | 2:46.17 | 81742 | 94208
7 | 20:56.09 | 6:27.33 | 94209 | 123266
8 | 27:23.42 | 2:37.21 | 123267 | 135062
9 | 30:00.63 | 4:34.70 | 135063 | 155682
10 | 34:35.58 | 5:19.12 | 155683 | 179619
11 | 39:54.70 | 3:47.66 | 179620 | 196710
12 | 43:42.61 | 3:08.26 | 196711 | 210836
13 | 46:51.12 | 3:47.58 | 210837 | 227919
14 | 50:38.70 | 3:46.33 | 227920 | 244902
15 | 54:25.28 | 2:32.12 | 244903 | 256314
16 | 56:57.40 | 4:28.09 | 256315 | 276423
17 | 61:25.49 | 3:17.43 | 276424 | 291241
18 | 64:43.17 | 4:28.55 | 291242 | 311396

Характеристики диапазона извлечения и сообщения об ошибках

Выбранный диапазон

Имя файла C:\Users\Ирина\Desktop\Димитрий Белосельский и хор - Верю надеюсь люблю....wav

Пиковый уровень 98.8 %
Скорость извлечения 0.4 X
Качество диапазона 100.0 %
CRC копии AD822855
Копирование... OK

Ошибок не произошло

Конец отчёта
Download

Войдите на сайт, чтобы увидеть полную информацию.

Как скачивать  ·   Правила трекера

[Профиль]  [ЛС] 

Cyril

Стаж: 9 лет 6 месяцев

Сообщений: 8

Russia

post 29-Апр-2012 06:45 (спустя 11 месяцев)

[Цитировать] 

СЕРГУЛЕТ, спасибо!
[Профиль]  [ЛС] 

igvas82

post 21-Май-2012 19:22 (спустя 22 дня)

[Цитировать] 

Пожалуйста, помогите скачать замечательную музыку - совсем нет сидов.
 

igvas82

post 24-Май-2012 00:26 (спустя 2 дня 5 часов)

[Цитировать] 

Спасибо!
 

Антохина Лариса

post 16-Июн-2012 07:03 (спустя 23 дня)

[Цитировать] 

Спасибо!
 

serpantin04

Стаж: 8 лет 4 месяца

Сообщений: 84

Belarus

post 09-Фев-2015 18:27 (спустя 2 года 7 месяцев)

[Цитировать] 

Здорово, спасибо!
[Профиль]  [ЛС] 

Иван Владимирович

Стаж: 2 месяца

Сообщений: 48

Russia

post 08-Фев-2020 17:56 (спустя 4 года 11 месяцев)

[Цитировать] 

Пожалуйста, добавьте больше сидов, а то скорость при 4G 20 kb/s
[Профиль]  [ЛС] 
Показать сообщения:    
Ответить на тему

Текущее время: 09-Апр 00:29

Часовой пояс: GMT + 4



Вы не можете начинать темы
Вы не можете отвечать на сообщения
Вы не можете редактировать свои сообщения
Вы не можете удалять свои сообщения
Вы не можете голосовать в опросах
Вы не можете прикреплять файлы к сообщениям
Вы не можете скачивать файлы