Loading...
Error

(Колокольные звоны) "Жития Псково-Печерских святых". (Композиция на гуслях и колокольный звон). Алексей Уткин. (2CD).- 2010, APE (image + .cue), lossless

Ответить на тему
Статистика раздачи
Скачали: [ 4 ]
   
 
Автор Сообщение

СЕРГУЛЕТ

Стаж: 8 лет

Сообщений: 2639

Откуда: LA ROMANA

Dominicanrep

post 19-Май-2011 20:01

[Цитировать] 

"Жития Псково-Печерских святых". (Композиция на гуслях и колокольный звон). Алексей Уткин. (2CD).

pic
Страна: Россия. Алексей Уткин.
Жанр: Колокольные звоны
Год выпуска: 2010
Формат: APE (image + .cue)
Битрейт аудио: lossless
Продолжительность: 01:09:08+01:15:13
Содержание+ Обложки
picpicpic
EAC log
Exact Audio Copy V1.0 beta 1 from 15. November 2010

Отчёт EAC об извлечении, выполненном 19. мая 2011, 16:30

Алексей Уткин / Жития Псково-Печерских святых

Дисковод: HL-DT-STDVDRAM GE20NU10 Adapter: 5 ID: 0

Режим чтения : Достоверность
Использование точного потока : Да
Отключение кэша аудио : Да
Использование указателей C2 : Нет

Коррекция смещения при чтении : 667
Способность читать области Lead-in и Lead-out : Нет
Заполнение пропущенных сэмплов тишиной : Да
Удаление блоков с тишиной в начале и конце : Нет
При вычислениях CRC использовались нулевые сэмплы : Да
Интерфейс : Встроенный Win32-интерфейс для Win NT/2000

Выходной формат : Внутренние WAV-операции
Формат сэмплов : 44.100 Гц; 16 бит; стерео

TOC извлечённого CD

Трек | Старт | Длительность | Начальный сектор | Конечный сектор
---------------------------------------------------------------------
1 | 0:00.00 | 18:53.63 | 0 | 85037
2 | 18:53.63 | 36:38.09 | 85038 | 249896
3 | 55:31.72 | 13:36.55 | 249897 | 311151

Характеристики диапазона извлечения и сообщения об ошибках

Выбранный диапазон

Имя файла C:\Users\Ирина\Desktop\Алексей Уткин - Жития Псково-Печерских святых.wav

Пиковый уровень 98.0 %
Скорость извлечения 1.5 X
Качество диапазона 100.0 %
CRC копии F96E08C1
Копирование... OK

Ошибок не произошло

Конец отчётаExact Audio Copy V1.0 beta 1 from 15. November 2010

Отчёт EAC об извлечении, выполненном 19. мая 2011, 16:16

Алексей Уткин / Жития Псково- Печерских святых-1

Дисковод: HL-DT-STDVDRAM GE20NU10 Adapter: 5 ID: 0

Режим чтения : Достоверность
Использование точного потока : Да
Отключение кэша аудио : Да
Использование указателей C2 : Нет

Коррекция смещения при чтении : 667
Способность читать области Lead-in и Lead-out : Нет
Заполнение пропущенных сэмплов тишиной : Да
Удаление блоков с тишиной в начале и конце : Нет
При вычислениях CRC использовались нулевые сэмплы : Да
Интерфейс : Встроенный Win32-интерфейс для Win NT/2000

Выходной формат : Внутренние WAV-операции
Формат сэмплов : 44.100 Гц; 16 бит; стерео

TOC извлечённого CD

Трек | Старт | Длительность | Начальный сектор | Конечный сектор
---------------------------------------------------------------------
1 | 0:00.00 | 11:26.66 | 0 | 51515
2 | 11:26.66 | 8:32.14 | 51516 | 89929
3 | 19:59.05 | 5:09.63 | 89930 | 113167
4 | 25:08.68 | 7:11.51 | 113168 | 145543
5 | 32:20.44 | 23:25.09 | 145544 | 250927
6 | 55:45.53 | 7:54.06 | 250928 | 286483
7 | 63:39.59 | 11:33.74 | 286484 | 338532

Характеристики диапазона извлечения и сообщения об ошибках

Выбранный диапазон

Имя файла C:\Users\Ирина\Desktop\Алексей Уткин - Жития Псково- Печерских святых-1.wav

Пиковый уровень 98.5 %
Скорость извлечения 1.2 X
Качество диапазона 99.9 %
CRC копии 331A2D34
Копирование... OK

Ошибок не произошло

Конец отчёта
Download

Войдите для скачивания торрент-файла

Как скачивать  ·   Правила трекера

[Профиль]  [ЛС] 

Владимир Лухов

Стаж: 6 лет 5 месяцев

Сообщений: 105

Откуда: Саратов

Russia

post 24-Май-2011 22:03 (спустя 5 дней)

[Цитировать] 

Спаси Господь.

_________________
С уважением. Владимир.
[Профиль]  [ЛС] 

Vidok

post 24-Июл-2012 16:16 (спустя 1 год 1 месяц)

[Цитировать] 

Спасибо
 

Mup

Стаж: 2 года 11 месяцев

Сообщений: 8

Russia

post 20-Мар-2014 01:59 (спустя 1 год 7 месяцев)

[Цитировать] 

Спаси Господи!

_________________
Полету души сильно мешает туман в голове.
[Профиль]  [ЛС] 

vika010288

Стаж: 7 лет 7 месяцев

Сообщений: 459

Georgia

post 28-Мар-2014 00:18 (спустя 7 дней)

[Цитировать] 

Спасибо
[Профиль]  [ЛС] 
Показать сообщения:    
Ответить на тему

Текущее время: 20-Фев 19:23

Часовой пояс: GMT + 4



Вы не можете начинать темы
Вы не можете отвечать на сообщения
Вы не можете редактировать свои сообщения
Вы не можете удалять свои сообщения
Вы не можете голосовать в опросах
Вы не можете прикреплять файлы к сообщениям
Вы не можете скачивать файлы