Loading...
Error

(Колокольные звоны.) "Колокольные звоны древних колоколов Руси". Алексей Уткин. - 2010, APE (image + .cue), lossless

Ответить на тему
Статистика раздачи
no
   
 
Автор Сообщение

СЕРГУЛЕТ

Стаж: 8 лет 3 месяца

Сообщений: 2639

Откуда: LA ROMANA

Dominicanrep

post 25-Апр-2011 11:49

[Цитировать] 

"Колокольные звоны древних колоколов Руси". Алексей Уткин.

pic
Страна: Россия. Алексей Уткин.
Жанр: Колокольные звоны.
Год выпуска: 2010
Формат: APE (image + .cue)
Битрейт аудио: lossless
Продолжительность: 01:05:59
Содержание+ Обложки
picpicpic
EAC log
Exact Audio Copy V1.0 beta 1 from 15. November 2010

Отчёт EAC об извлечении, выполненном 23. апреля 2011, 18:33

Алексей Уткин / Колокольные звоны древних колоколов Руси

Дисковод: HL-DT-STDVDRAM GE20NU10 Adapter: 5 ID: 0

Режим чтения : Достоверность
Использование точного потока : Да
Отключение кэша аудио : Да
Использование указателей C2 : Нет

Коррекция смещения при чтении : 667
Способность читать области Lead-in и Lead-out : Нет
Заполнение пропущенных сэмплов тишиной : Да
Удаление блоков с тишиной в начале и конце : Нет
При вычислениях CRC использовались нулевые сэмплы : Да
Интерфейс : Встроенный Win32-интерфейс для Win NT/2000

Выходной формат : Внутренние WAV-операции
Формат сэмплов : 44.100 Гц; 16 бит; стерео

TOC извлечённого CD

Трек | Старт | Длительность | Начальный сектор | Конечный сектор
---------------------------------------------------------------------
1 | 0:00.00 | 5:35.69 | 0 | 25193
2 | 5:35.69 | 7:12.41 | 25194 | 57634
3 | 12:48.35 | 11:50.10 | 57635 | 110894
4 | 24:38.45 | 8:50.11 | 110895 | 150655
5 | 33:28.56 | 8:21.31 | 150656 | 188261
6 | 41:50.12 | 6:34.10 | 188262 | 217821
7 | 48:24.22 | 9:53.48 | 217822 | 262344
8 | 58:17.70 | 7:41.65 | 262345 | 296984

Характеристики диапазона извлечения и сообщения об ошибках

Выбранный диапазон

Имя файла C:\Users\Ирина\Desktop\Алексей Уткин - Колокольные звоны древних колоколов Руси.wav

Пиковый уровень 81.2 %
Скорость извлечения 0.8 X
Качество диапазона 100.0 %
CRC копии 48E76A58
Копирование... OK

Ошибок не произошло

Конец отчёта
Download

Войдите для скачивания торрент-файла

Как скачивать  ·   Правила трекера

[Профиль]  [ЛС] 

Владимир Лухов

Стаж: 6 лет 8 месяцев

Сообщений: 108

Откуда: Саратов

Russia

post 11-Май-2011 19:29 (спустя 16 дней)

[Цитировать] 

Спасибо.

_________________
С уважением. Владимир.
[Профиль]  [ЛС] 

gavrik.s

Стаж: 5 лет 4 месяца

Сообщений: 85

post 03-Янв-2012 20:16 (спустя 7 месяцев)

[Цитировать] 

Спасибо,завораживает.(в 5+1 слушал)
[Профиль]  [ЛС] 

Webioss

Стаж: 3 года 5 месяцев

Сообщений: 4

Russia

post 08-Мар-2016 14:48 (спустя 4 года 2 месяца)

[Цитировать] 

Встаньте на раздачу, пжл
Спаси Бог!
[Профиль]  [ЛС] 
Показать сообщения:    
Ответить на тему

Текущее время: 23-Май 05:20

Часовой пояс: GMT + 4



Вы не можете начинать темы
Вы не можете отвечать на сообщения
Вы не можете редактировать свои сообщения
Вы не можете удалять свои сообщения
Вы не можете голосовать в опросах
Вы не можете прикреплять файлы к сообщениям
Вы не можете скачивать файлы