Loading...
Error

(Церковная музыка Греции, Афона и Сербии (lossless).) "Сирийская Литургия". (Монастырь Св. Марка. Живая запись). - 1999, APE (image + .cue), lossless

Ответить на тему
Статистика раздачи
Скачали: [ 6 ]
   
 
Автор Сообщение

СЕРГУЛЕТ

Стаж: 8 лет 3 месяца

Сообщений: 2639

Откуда: LA ROMANA

Dominicanrep

post 23-Апр-2011 10:48

[Цитировать] 

"Сирийская Литургия". (Монастырь Св. Марка. Живая запись).

pic
Страна: Израиль. "Holyland Records LTD".
Жанр: Церковная музыка Греции, Афона и Сербии (lossless).
Год выпуска: 1999
Формат: APE (image + .cue)
Битрейт аудио: lossless
Продолжительность: 00:58:47
Содержание+ Обложки
picpic
EAC log
Exact Audio Copy V1.0 beta 1 from 15. November 2010

Отчёт EAC об извлечении, выполненном 22. апреля 2011, 11:29

Unknown Artist / Syrian Liturgy

Дисковод: HL-DT-STDVDRAM GE20NU10 Adapter: 5 ID: 1

Режим чтения : Достоверность
Использование точного потока : Да
Отключение кэша аудио : Да
Использование указателей C2 : Нет

Коррекция смещения при чтении : 667
Способность читать области Lead-in и Lead-out : Нет
Заполнение пропущенных сэмплов тишиной : Да
Удаление блоков с тишиной в начале и конце : Нет
При вычислениях CRC использовались нулевые сэмплы : Да
Интерфейс : Встроенный Win32-интерфейс для Win NT/2000

Выходной формат : Внутренние WAV-операции
Формат сэмплов : 44.100 Гц; 16 бит; стерео

TOC извлечённого CD

Трек | Старт | Длительность | Начальный сектор | Конечный сектор
---------------------------------------------------------------------
1 | 0:00.00 | 5:17.42 | 0 | 23816
2 | 5:17.42 | 3:30.25 | 23817 | 39591
3 | 8:47.67 | 19:51.55 | 39592 | 128971
4 | 28:39.47 | 29:52.69 | 128972 | 263440
5 | 58:32.41 | 2:02.44 | 263441 | 272634

Характеристики диапазона извлечения и сообщения об ошибках

Выбранный диапазон

Имя файла C:\Users\Ирина\Desktop\Unknown Artist - Syrian Liturgy.wav

Пиковый уровень 100.0 %
Скорость извлечения 0.2 X
Качество диапазона 99.9 %
CRC копии 2DE1A1FC
Копирование... OK

Ошибок не произошло

Конец отчёта
Дополнительная информация: Диск №15 из серии "Chants from the Holy", выпущенных в Израиле к 2000 Рождества Христова.
Всего было выпущено 40 CD...
Download

Войдите для скачивания торрент-файла

Как скачивать  ·   Правила трекера

[Профиль]  [ЛС] 

Странник1

Стаж: 7 лет 5 месяцев

Сообщений: 2308

Russia

post 02-Май-2011 22:55 (спустя 9 дней)

[Цитировать] 

Спасибо..
[Профиль]  [ЛС] 

valkangoranov

Стаж: 5 лет 1 месяц

Сообщений: 2

Bulgaria

post 14-Сен-2013 18:57 (спустя 2 года 4 месяца)

[Цитировать] 

Спасибо
[Профиль]  [ЛС] 

Alex Sag

Стаж: 8 лет

Сообщений: 278

Kazakhstan

post 26-Мар-2014 08:56 (спустя 6 месяцев)

[Цитировать] 

Благодарю! Спаси Господи!

_________________
Alexey
[Профиль]  [ЛС] 

vika010288

Стаж: 7 лет 11 месяцев

Сообщений: 459

Georgia

post 28-Мар-2014 00:13 (спустя 1 день 15 часов)

[Цитировать] 

Благодарю!
[Профиль]  [ЛС] 
Показать сообщения:    
Ответить на тему

Текущее время: 30-Май 11:14

Часовой пояс: GMT + 4



Вы не можете начинать темы
Вы не можете отвечать на сообщения
Вы не можете редактировать свои сообщения
Вы не можете удалять свои сообщения
Вы не можете голосовать в опросах
Вы не можете прикреплять файлы к сообщениям
Вы не можете скачивать файлы