Loading...
Error

(Церковная музыка Греции, Афона и Сербии (lossless).) "Песнопения церковного года". Братский хор монастыря Ксенофонт, Афон. (2CD). - 2010, APE (image + .cue), lossless

Ответить на тему
Статистика раздачи
   
 
Автор Сообщение

СЕРГУЛЕТ

Стаж: 8 лет 7 месяцев

Сообщений: 2640

Откуда: LA ROMANA

Dominicanrep

post 10-Апр-2011 11:16

[Цитировать] 

"Песнопения церковного года". Братский хор монастыря Ксенофонт, Афон. (2CD).

pic
Страна: Греция. Монастырь Ксенофонт.
Жанр: Церковная музыка Греции, Афона и Сербии (lossless).
Год выпуска: 2010
Формат: APE (image + .cue)
Битрейт аудио: lossless
Продолжительность: 01:09:19+01:10:59
Обложки диска+Содержание
picpicpicpicpic
EAC log
Exact Audio Copy V1.0 beta 1 from 15. November 2010

EAC extraction logfile from 9. April 2011, 20:41

Монастырь Ксенофонт, Афон / Песнопения церковного года. 1

Used drive : HL-DT-STDVDRAM GE20NU10 Adapter: 5 ID: 0

Read mode : Burst

Read offset correction : 0
Overread into Lead-In and Lead-Out : No
Fill up missing offset samples with silence : Yes
Delete leading and trailing silent blocks : No
Null samples used in CRC calculations : Yes
Used interface : Installed external ASPI interface

Used output format : Internal WAV Routines
Sample format : 44.100 Hz; 16 Bit; Stereo

TOC of the extracted CD

Track | Start | Length | Start sector | End sector
---------------------------------------------------------
1 | 0:00.00 | 2:03.57 | 0 | 9281
2 | 2:03.57 | 7:29.07 | 9282 | 42963
3 | 9:32.64 | 5:10.61 | 42964 | 66274
4 | 14:43.50 | 3:33.21 | 66275 | 82270
5 | 18:16.71 | 5:59.15 | 82271 | 109210
6 | 24:16.11 | 3:09.69 | 109211 | 123454
7 | 27:26.05 | 3:37.69 | 123455 | 139798
8 | 31:03.74 | 2:12.34 | 139799 | 149732
9 | 33:16.33 | 1:52.29 | 149733 | 158161
10 | 35:08.62 | 2:23.62 | 158162 | 168948
11 | 37:32.49 | 3:55.53 | 168949 | 186626
12 | 41:28.27 | 2:10.03 | 186627 | 196379
13 | 43:38.30 | 3:45.33 | 196380 | 213287
14 | 47:23.63 | 1:43.59 | 213288 | 221071
15 | 49:07.47 | 4:46.66 | 221072 | 242587
16 | 53:54.38 | 2:25.20 | 242588 | 253482
17 | 56:19.58 | 2:41.03 | 253483 | 265560
18 | 59:00.61 | 2:17.06 | 265561 | 275841
19 | 61:17.67 | 2:59.53 | 275842 | 289319
20 | 64:17.45 | 3:21.00 | 289320 | 304394
21 | 67:38.45 | 1:40.70 | 304395 | 311964

Range status and errors

Selected range

Filename E:\Монастырь Ксенофонт, Афон - Песнопения церковного года. 1.wav

Peak level 94.1 %
Extraction speed 0.7 X
Copy CRC 98A679C9
Copy OK

No errors occurred

End of status report

cd2.
Exact Audio Copy V1.0 beta 1 from 15. November 2010

EAC extraction logfile from 9. April 2011, 20:50

Монастырь Ксенофонт, Афон / Песнопения церковного года. 2

Used drive : HL-DT-STDVDRAM GE20NU10 Adapter: 5 ID: 0

Read mode : Burst

Read offset correction : 0
Overread into Lead-In and Lead-Out : No
Fill up missing offset samples with silence : Yes
Delete leading and trailing silent blocks : No
Null samples used in CRC calculations : Yes
Used interface : Installed external ASPI interface

Used output format : Internal WAV Routines
Sample format : 44.100 Hz; 16 Bit; Stereo

TOC of the extracted CD

Track | Start | Length | Start sector | End sector
---------------------------------------------------------
1 | 0:00.00 | 6:51.21 | 0 | 30845
2 | 6:51.21 | 1:53.54 | 30846 | 39374
3 | 8:45.00 | 7:01.71 | 39375 | 71020
4 | 15:46.71 | 3:18.10 | 71021 | 85880
5 | 19:05.06 | 6:54.30 | 85881 | 116960
6 | 25:59.36 | 4:41.14 | 116961 | 138049
7 | 30:40.50 | 4:31.71 | 138050 | 158445
8 | 35:12.46 | 2:37.74 | 158446 | 170294
9 | 37:50.45 | 8:39.13 | 170295 | 209232
10 | 46:29.58 | 5:27.64 | 209233 | 233821
11 | 51:57.47 | 2:13.26 | 233822 | 243822
12 | 54:10.73 | 5:16.70 | 243823 | 267592
13 | 59:27.68 | 2:49.63 | 267593 | 280330
14 | 62:17.56 | 2:28.38 | 280331 | 291468
15 | 64:46.19 | 6:12.69 | 291469 | 319437

Range status and errors

Selected range

Filename E:\Монастырь Ксенофонт, Афон - Песнопения церковного года. 2.wav

Timing problem 0:29:17

Peak level 93.3 %
Extraction speed 1.5 X
Copy CRC FACD9DA9
Copy finished

No errors occurred

End of status report
Download

Войдите на сайт, чтобы увидеть полную информацию.

Как скачивать  ·   Правила трекера



Последний раз редактировалось: СЕРГУЛЕТ (2011-04-26 16:20), всего редактировалось 1 раз
[Профиль]  [ЛС] 

р.Б.Александр

Стаж: 6 лет 11 месяцев

Сообщений: 15

Russia

post 10-Апр-2011 14:44 (спустя 3 часа)

[Цитировать] 

Спаси, Господи, Вас за такое благолепие!!! Только если можно , дайте скорости, пожайлуста.
[Профиль]  [ЛС] 

+Сергей+

Стаж: 6 лет 9 месяцев

Сообщений: 225

Откуда: Москва

Russia

post 10-Апр-2011 21:25 (спустя 6 часов)

[Цитировать] 

Спасибо.
[Профиль]  [ЛС] 

vika010288

Стаж: 8 лет 2 месяца

Сообщений: 458

Georgia

post 12-Апр-2011 22:23 (спустя 2 дня)

[Цитировать] 

По больше бы таких раздач!Спасибо!
[Профиль]  [ЛС] 

Cтарый

Стаж: 6 лет 7 месяцев

Сообщений: 11

Greece

post 19-Апр-2011 07:54 (спустя 6 дней)

[Цитировать] 

Благодарю Вас! Только бы скорости чуток)))
[Профиль]  [ЛС] 

СЕРГУЛЕТ

Стаж: 8 лет 7 месяцев

Сообщений: 2640

Откуда: LA ROMANA

Dominicanrep

post 26-Апр-2011 16:21 (спустя 7 дней)

[Цитировать] 

Торрент-файл переделан. Выставлены все необходимые параметры.
[Профиль]  [ЛС] 

eiryk

Стаж: 6 лет 4 месяца

Сообщений: 2

post 02-Май-2011 16:29 (спустя 6 дней)

[Цитировать] 

Большое спасибо
[Профиль]  [ЛС] 

mangealic

Стаж: 3 года 1 месяц

Сообщений: 23

post 16-Авг-2014 15:15 (спустя 3 года 3 месяца)

[Цитировать] 

Спасибо.
[Профиль]  [ЛС] 

CEPBEP4

Стаж: 6 лет 6 месяцев

Сообщений: 133

Откуда: ОРЕНБУРГ

Russia

post 09-Мар-2015 17:04 (спустя 6 месяцев)

[Цитировать] 

А обложки можно увидеть как нибудь?

_________________
pic
pic 100 Мбит/с pic 100 Мбит/с pic
[Профиль]  [ЛС] 
Показать сообщения:    
Ответить на тему

Текущее время: 20-Сен 13:22

Часовой пояс: GMT + 4



Вы не можете начинать темы
Вы не можете отвечать на сообщения
Вы не можете редактировать свои сообщения
Вы не можете удалять свои сообщения
Вы не можете голосовать в опросах
Вы не можете прикреплять файлы к сообщениям
Вы не можете скачивать файлы