Loading...
Error

(Церковная музыка Греции, Афона и Сербии (lossless)) "Молебный канон св. Марии Магдалине". Поют монахи монастыря Симонопетр, Афон. - 2010, APE (image + .cue), lossless

Ответить на тему
Статистика раздачи
Скачали: [ 7 ]
   
 
Автор Сообщение

СЕРГУЛЕТ

Стаж: 8 лет 3 месяца

Сообщений: 2639

Откуда: LA ROMANA

Dominicanrep

post 09-Апр-2011 09:12

[Цитировать] 

"Молебный канон св. Марии Магдалине". Поют монахи монастыря Симонопетр, Афон.

pic
Страна: Греция. Монастырь Симонопетр.
Жанр: Церковная музыка Греции, Афона и Сербии (lossless)
Год выпуска: 2010
Формат: APE (image + .cue)
Битрейт аудио: lossless
Продолжительность: 00:59:06
Содержание+Обложка
picpic
EAC log
Exact Audio Copy V1.0 beta 1 from 15. November 2010

Отчёт EAC об извлечении, выполненном 26. апреля 2011, 15:35

Поют монахи монастыря Симонопетр, Афон / Молебный канон св. Марии Магдалине

Дисковод: HL-DT-STDVDRAM GE20NU10 Adapter: 5 ID: 0

Режим чтения : Достоверность
Использование точного потока : Да
Отключение кэша аудио : Да
Использование указателей C2 : Нет

Коррекция смещения при чтении : 667
Способность читать области Lead-in и Lead-out : Нет
Заполнение пропущенных сэмплов тишиной : Да
Удаление блоков с тишиной в начале и конце : Нет
При вычислениях CRC использовались нулевые сэмплы : Да
Интерфейс : Встроенный Win32-интерфейс для Win NT/2000

Выходной формат : Внутренние WAV-операции
Формат сэмплов : 44.100 Гц; 16 бит; стерео

TOC извлечённого CD

Трек | Старт | Длительность | Начальный сектор | Конечный сектор
---------------------------------------------------------------------
1 | 0:00.00 | 0:21.56 | 0 | 1630
2 | 0:21.56 | 1:38.31 | 1631 | 9011
3 | 2:00.12 | 3:05.46 | 9012 | 22932
4 | 5:05.58 | 2:23.30 | 22933 | 33687
5 | 7:29.13 | 3:47.72 | 33688 | 50784
6 | 11:17.10 | 2:13.42 | 50785 | 60801
7 | 13:30.52 | 5:06.28 | 60802 | 83779
8 | 18:37.05 | 3:33.46 | 83780 | 99800
9 | 22:10.51 | 3:48.48 | 99801 | 116948
10 | 25:59.24 | 1:55.10 | 116949 | 125583
11 | 27:54.34 | 2:52.55 | 125584 | 138538
12 | 30:47.14 | 4:18.06 | 138539 | 157894
13 | 35:05.20 | 3:57.32 | 157895 | 175701
14 | 39:02.52 | 2:30.00 | 175702 | 186951
15 | 41:32.52 | 3:26.17 | 186952 | 202418
16 | 44:58.69 | 2:15.38 | 202419 | 212581
17 | 47:14.32 | 11:52.27 | 212582 | 266008

Характеристики диапазона извлечения и сообщения об ошибках

Выбранный диапазон

Имя файла C:\Users\Ирина\Desktop\Поют монахи монастыря Симонопетр, Афон - Молебный канон св. Марии Магдалине.wav

Пиковый уровень 97.7 %
Скорость извлечения 1.2 X
Качество диапазона 99.9 %
CRC копии 16CD7AF8
Копирование... OK

Ошибок не произошло

Конец отчёта
Download

Войдите для скачивания торрент-файла

Как скачивать  ·   Правила трекера

[Профиль]  [ЛС] 

СЕРГУЛЕТ

Стаж: 8 лет 3 месяца

Сообщений: 2639

Откуда: LA ROMANA

Dominicanrep

post 26-Апр-2011 15:46 (спустя 17 дней)

[Цитировать] 

Торрент-файл перезалит. Выставлены все необходимые параметры.
[Профиль]  [ЛС] 

jora.cls

Стаж: 5 лет 7 месяцев

Сообщений: 1

post 07-Дек-2011 23:04 (спустя 7 месяцев)

[Цитировать] 

СЕРГУЛЕТ писал(а):

Торрент-файл перезалит. Выставлены все необходимые параметры.
не могу скачать обложки,. пишет мол не найдены.. Crying or Very sad
[Профиль]  [ЛС] 

vika010288

Стаж: 7 лет 11 месяцев

Сообщений: 459

Georgia

post 07-Дек-2011 23:34 (спустя 29 минут)

[Цитировать] 

Благодарю
[Профиль]  [ЛС] 

gavrik.s

Стаж: 5 лет 4 месяца

Сообщений: 85

post 24-Май-2012 19:10 (спустя 5 месяцев 16 дней)

[Цитировать] 

Спасибо.
[Профиль]  [ЛС] 

George1970

Стаж: 4 года

Сообщений: 7

Australia

post 18-Май-2013 13:18 (спустя 11 месяцев)

[Цитировать] 

Thank You...
[Профиль]  [ЛС] 

stepan-frunze

Стаж: 8 лет 2 месяца

Сообщений: 2565

Russia

post 19-Май-2013 03:34 (спустя 14 часов)

[Цитировать] 

Благодарю
[Профиль]  [ЛС] 

devss

Стаж: 7 лет 6 месяцев

Сообщений: 17

Откуда: РФ

Russia

post 11-Окт-2013 21:28 (спустя 4 месяца 23 дня)

[Цитировать] 

прошу раздать. спаси, Господи.
[Профиль]  [ЛС] 

gavrik.s

Стаж: 5 лет 4 месяца

Сообщений: 85

post 14-Окт-2013 13:42 (спустя 2 дня 16 часов)

[Цитировать] 

Скачивайте,скачаете постойте на раздаче.Сам уйду.
[Профиль]  [ЛС] 

devss

Стаж: 7 лет 6 месяцев

Сообщений: 17

Откуда: РФ

Russia

post 14-Окт-2014 23:45 (спустя 1 год)

[Цитировать] 

СЕРГУЛЕТ
Прошу раздать обложки. Спаси, Господи.
[Профиль]  [ЛС] 

nonono

Стаж: 2 года 3 месяца

Сообщений: 9

post 02-Окт-2015 04:45 (спустя 11 месяцев)

[Цитировать] 

раздайте плизки Smile
[Профиль]  [ЛС] 
Показать сообщения:    
Ответить на тему

Текущее время: 29-Май 17:18

Часовой пояс: GMT + 4



Вы не можете начинать темы
Вы не можете отвечать на сообщения
Вы не можете редактировать свои сообщения
Вы не можете удалять свои сообщения
Вы не можете голосовать в опросах
Вы не можете прикреплять файлы к сообщениям
Вы не можете скачивать файлы