Loading...
Error

(Церковная музыка Греции, Афона и Сербии (lossless).) Молебный канон св. Иоанну Предтече. Поют монахини монастыря. - 2010, APE (image + .cue), lossless

Ответить на тему
Статистика раздачи
Скачали: [ 4 ]
   
 
Автор Сообщение

СЕРГУЛЕТ

Стаж: 8 лет 3 месяца

Сообщений: 2639

Откуда: LA ROMANA

Dominicanrep

post 03-Мар-2011 00:07

[Цитировать] 

Молебный канон св. Иоанну Предтече. Поют монахини монастыря.

pic
Страна: Греция.
Жанр: Церковная музыка Греции, Афона и Сербии (lossless).
Год выпуска: 2010
Формат: APE (image + .cue)
Битрейт аудио: lossless
Продолжительность: 00:49:58
Обложки+Содержание
picpicpic
EAC log
Exact Audio Copy V0.99 prebeta 5 from 4. May 2009

Отчёт EAC об извлечении, выполненном 20. февраля 2011, 21:20

Unknown Artist / Молебный канон св. Иоанну Предтече Поют монахини монастыря

Дисковод: ASUS DRW-2014L1T Adapter: 2 ID: 1

Режим чтения : Скоростной

Коррекция смещения при чтении : 0
Способность читать области Lead-in и Lead-out : Нет
Заполнение пропущенных сэмплов тишиной : Да
Удаление блоков с тишиной в начале и конце : Нет
При вычислениях CRC использовались нулевые сэмплы : Нет
Интерфейс : Встроенный Win32-интерфейс для Win NT/2000

Выходной формат : Внутренние WAV-операции
Формат сэмплов : 44.100 Гц; 16 бит; стерео

TOC извлечённого CD

Трек | Старт | Длительность | Начальный сектор | Конечный сектор
---------------------------------------------------------------------
1 | 0:00.00 | 1:41.10 | 0 | 7584
2 | 1:41.10 | 3:15.23 | 7585 | 22232
3 | 4:56.33 | 1:54.65 | 22233 | 30847
4 | 6:51.23 | 4:27.73 | 30848 | 50945
5 | 11:19.21 | 1:23.26 | 50946 | 57196
6 | 12:42.47 | 0:33.50 | 57197 | 59721
7 | 13:16.22 | 5:54.11 | 59722 | 86282
8 | 19:10.33 | 1:23.19 | 86283 | 92526
9 | 20:33.52 | 4:56.02 | 92527 | 114728
10 | 25:29.54 | 2:38.14 | 114729 | 126592
11 | 28:07.68 | 2:57.13 | 126593 | 139880
12 | 31:05.06 | 5:40.73 | 139881 | 165453
13 | 36:46.04 | 3:47.37 | 165454 | 182515
14 | 40:33.41 | 2:29.43 | 182516 | 193733
15 | 43:03.09 | 2:44.36 | 193734 | 206069
16 | 45:47.45 | 3:11.68 | 206070 | 220462
17 | 48:59.38 | 0:58.67 | 220463 | 224879

Характеристики диапазона извлечения и сообщения об ошибках

Выбранный диапазон

Имя файла C:\Unknown Artist - Молебный канон св. Иоанну Предтече Поют монахини монастыря.wav

Проблемы синхронизации 0:00:43

Пиковый уровень 89.1 %
CRC копии F5EAE884
Копирование завершено

Ошибок не произошло

Конец отчёта
Download

Войдите для скачивания торрент-файла

Как скачивать  ·   Правила трекера

[Профиль]  [ЛС] 

КукА

Стаж: 8 лет 1 месяц

Сообщений: 531

Откуда: Одесса

Ukraine

post 03-Мар-2011 00:45 (спустя 37 минут)

[Цитировать] 

Спаси Господи!
[Профиль]  [ЛС] 

sadhu

Стаж: 8 лет 3 месяца

Сообщений: 55

Russia

post 03-Мар-2011 01:23 (спустя 38 минут)

[Цитировать] 

особенное спасибо за этот диск, кроме Ормилии как то и не припомню еще женских хоров..
[Профиль]  [ЛС] 

Lida

post 27-Окт-2012 18:13 (спустя 1 год 7 месяцев)

[Цитировать] 

СЕРГУЛЕТ
Дайте загрузку, пожалуйста.
 

Lida

post 28-Окт-2012 02:51 (спустя 8 часов)

[Цитировать] 

Спасибо!!!
 

OliveSeed

post 14-Дек-2012 17:47 (спустя 1 месяц 17 дней)

[Цитировать] 

Спасибо!
 

_sunday

Стаж: 1 год 7 месяцев

Сообщений: 5

Serbia

post 15-Дек-2015 16:21 (спустя 3 года)

[Цитировать] 

Хвала!!!
[Профиль]  [ЛС] 
Показать сообщения:    
Ответить на тему

Текущее время: 29-Май 02:20

Часовой пояс: GMT + 4



Вы не можете начинать темы
Вы не можете отвечать на сообщения
Вы не можете редактировать свои сообщения
Вы не можете удалять свои сообщения
Вы не можете голосовать в опросах
Вы не можете прикреплять файлы к сообщениям
Вы не можете скачивать файлы