Loading...
Error

(Церковная музыка Греции, Афона и Сербии (lossless)) "Агни Парфене". Религиозные песнопения в исполнении Византийского хора под руководством Панайотиса Каламбакаса. - 2010, APE (image + .cue), lossless

Ответить на тему
Статистика раздачи
   
 
Автор Сообщение

СЕРГУЛЕТ

Стаж: 12 лет

Сообщений: 2637

Откуда: LA ROMANA

Dominicanrep

post 02-Мар-2011 23:37

[Цитировать] 

"Агни Парфене"- Религиозные песнопения в исполнении Византийского хора п/у Панайотиса Каламбакаса
pic
Страна: Греция
Жанр: Церковная музыка Греции, Афона и Сербии (lossless)
Год выпуска: 2010
Формат: APE (image + .cue)
Битрейт аудио: lossless
Продолжительность: 01:05:09
Трэклист:
01. «Άγνη Παρθένε...»
02. «Άνυμνων μεγαλύνω Σε...»
03. «Έάσατε κέλλη με...»
04. «Χαίρε Κεχαριτωμένη...»
05. «Παραλλαγή του μοναχού...»
06. «Χαίρε Μαριάμ...»
07. «Τήν Θεόπαιδα Μαρίαν...»
08. «Χαίρε Παρθένε Πάνσεμνε...»
09. «Άειπάρθενε Άγνή...»
10. «Ένας είν ο Κύριος...»

EAC log
Exact Audio Copy V0.99 prebeta 5 from 4. May 2009

Отчёт EAC об извлечении, выполненном 2. марта 2011, 19:20

Unknown Artist / Агни Парфене

Дисковод: ASUS DRW-2014L1T Adapter: 2 ID: 1

Режим чтения : Скоростной

Коррекция смещения при чтении : 0
Способность читать области Lead-in и Lead-out : Нет
Заполнение пропущенных сэмплов тишиной : Да
Удаление блоков с тишиной в начале и конце : Нет
При вычислениях CRC использовались нулевые сэмплы : Нет
Интерфейс : Встроенный Win32-интерфейс для Win NT/2000

Выходной формат : Внутренние WAV-операции
Формат сэмплов : 44.100 Гц; 16 бит; стерео

TOC извлечённого CD

Трек | Старт | Длительность | Начальный сектор | Конечный сектор
---------------------------------------------------------------------
1 | 0:00.00 | 7:04.23 | 0 | 31822
2 | 7:04.23 | 4:23.17 | 31823 | 51564
3 | 11:27.40 | 8:06.71 | 51565 | 88085
4 | 19:34.36 | 5:56.73 | 88086 | 114858
5 | 25:31.34 | 8:56.35 | 114859 | 155093
6 | 34:27.69 | 5:59.64 | 155094 | 182082
7 | 40:27.58 | 5:56.42 | 182083 | 208824
8 | 46:24.25 | 5:53.30 | 208825 | 235329
9 | 52:17.55 | 6:57.56 | 235330 | 266660
10 | 59:15.36 | 5:53.29 | 266661 | 293164

Характеристики диапазона извлечения и сообщения об ошибках

Выбранный диапазон

Имя файла C:\Unknown Artist - Агни Парфене.wav

Проблемы синхронизации 0:00:43

Пиковый уровень 100.0 %
CRC копии 9DAF7E7D
Копирование завершено

Ошибок не произошло

Конец отчёта

Обложки и содержание
pic pic

Download

Войдите на сайт, чтобы увидеть полную информацию.

Как скачивать  ·   Правила трекера

[Профиль]  [ЛС] 

КукА

Стаж: 12 лет

Сообщений: 554

Откуда: Одесса

Ukraine

post 03-Мар-2011 00:42 (спустя 1 час 5 минут)

[Цитировать] 

Дай Бог здравия!
[Профиль]  [ЛС] 

sadhu

Стаж: 12 лет

Сообщений: 55

Russia

post 03-Мар-2011 01:00 (спустя 18 минут)

[Цитировать] 

спасибо!
[Профиль]  [ЛС] 

neofit

Стаж: 11 лет

Сообщений: 18

Ukraine

post 02-Дек-2011 01:58 (спустя 8 месяцев)

[Цитировать] 

У меня плеер (AIMP3) видит только первый и последний трек... Может у кого-нибудь есть этот диск в mp3?
[Профиль]  [ЛС] 

AllaVal27

Стаж: 7 лет 8 месяцев

Сообщений: 138

Canada

post 12-Ноя-2013 04:50 (спустя 1 год 11 месяцев)

[Цитировать] 

Спасибо большое. Искала один сборник, а нашла сразу три и все хороши!
[Профиль]  [ЛС] 

raychen

Стаж: 12 лет

Сообщений: 36

post 18-Ноя-2013 16:21 (спустя 6 дней)

[Цитировать] 

Я не смог записать его на диск. Что-то не так в раздаче.
[Профиль]  [ЛС] 

акинтьев владимир

Стаж: 9 лет

Сообщений: 1

Russia

post 22-Янв-2015 19:21 (спустя 1 год 2 месяца)

[Цитировать] 

Спаси Господи за Великолепные песнопения!

_________________
этот e-mail мой,я забыл как пописывался,а вы несохранили.
[Профиль]  [ЛС] 
Показать сообщения:    
Ответить на тему

Текущее время: 25-Июл 13:20

Часовой пояс: GMT + 4



Вы не можете начинать темы
Вы не можете отвечать на сообщения
Вы не можете редактировать свои сообщения
Вы не можете удалять свои сообщения
Вы не можете голосовать в опросах
Вы не можете прикреплять файлы к сообщениям
Вы не можете скачивать файлы