Loading...
Error

(Колокольные звоны) Колокольные звоны Русского Севера (Колокола Архангельского музея деревянного зодчества) - 1995, FLAC (image + .cue), lossless

Ответить на тему
Статистика раздачи
Скачали: [ 7 ]
   
 
Автор Сообщение

etrusk

Стаж: 6 лет 5 месяцев

Сообщений: 128

Russia

post 02-Окт-2010 22:34

[Цитировать] 

Колокольные звоны Русского Севера (Колокола Архангельского музея деревянного зодчества)

pic
Страна: Россия
Жанр: Колокольные звоны (lossless)
Год выпуска: 1995
Формат: FLAC (image + .cue)
Битрейт аудио: lossless
Продолжительность: 1:01:05
Трэклист:
ТРАДИЦИОННЫЕ ЗВОНЫ
01. Благовест
02. Звонильная неделя
03. Водосвятный перезвон
04. Встречный перезвон (на встречу владыки)
05. Погребальный перезвон
06. Повседневный звон
07. Красный звон
08. Праздничный звон
09. Свадебный разгонный звон
СОВРЕМЕННЫЕ КОНЦЕРТНЫЕ ЗВОНЫ
10. Вальс колоколов
11. Рассказ монаха
12. Наваждение
13. Русь деревянная
Дополнительная информация:
Исполнитель: Петровский Владимир Марьянович, старший звонарь храма «Успения Пресвятой Богородицы» г. Архангельск. Биографию и более подробные сведения о нем см. здесь: http://www.petrovskij.com/biography/ .
Издатель: Санкт-Петербургская студия грамзаписи, 1995 (запись 1990 года).
EAC log
Exact Audio Copy V0.99 prebeta 5 from 4. May 2009

Отчёт EAC об извлечении, выполненном 2. октября 2010, 12:02

В.Петровский / Колокольные звоны Русского Севера

Дисковод: Optiarc DVD RW AD-7200S Adapter: 5 ID: 0

Режим чтения : Достоверность
Использование точного потока : Да
Отключение кэша аудио : Да
Использование указателей C2 : Нет

Коррекция смещения при чтении : 48
Способность читать области Lead-in и Lead-out : Нет
Заполнение пропущенных сэмплов тишиной : Да
Удаление блоков с тишиной в начале и конце : Нет
При вычислениях CRC использовались нулевые сэмплы : Да
Интерфейс : Встроенный Win32-интерфейс для Win NT/2000

Выходной формат : Внутренние WAV-операции
Формат сэмплов : 44.100 Гц; 16 бит; стерео

TOC извлечённого CD

Трек | Старт | Длительность | Начальный сектор | Конечный сектор
---------------------------------------------------------------------
1 | 0:00.00 | 1:46.33 | 0 | 7982
2 | 1:46.33 | 3:10.30 | 7983 | 22262
3 | 4:56.63 | 4:43.37 | 22263 | 43524
4 | 9:40.25 | 5:02.58 | 43525 | 66232
5 | 14:43.08 | 5:52.37 | 66233 | 92669
6 | 20:35.45 | 4:57.63 | 92670 | 115007
7 | 25:33.33 | 3:16.67 | 115008 | 129774
8 | 28:50.25 | 3:30.40 | 129775 | 145564
9 | 32:20.65 | 3:13.23 | 145565 | 160062
10 | 35:34.13 | 4:35.45 | 160063 | 180732
11 | 40:09.58 | 6:14.07 | 180733 | 208789
12 | 46:23.65 | 8:43.23 | 208790 | 248037
13 | 55:07.13 | 5:57.70 | 248038 | 274882

Характеристики диапазона извлечения и сообщения об ошибках

Выбранный диапазон

Имя файла J:\Audio\Колокольные звоны Русского Севера\В.Петровский - Колокольные звоны Русского Севера.wav

Пиковый уровень 60.7 %
Качество диапазона 98.3 %
CRC теста 231BF5C9
CRC копии 231BF5C9
Копирование... OK

Ошибок не произошло

AccurateRip: сводка
Трек 1 нет в базе данных
Трек 2 нет в базе данных
Трек 3 нет в базе данных
Трек 4 нет в базе данных
Трек 5 нет в базе данных
Трек 6 нет в базе данных
Трек 7 нет в базе данных
Трек 8 нет в базе данных
Трек 9 нет в базе данных
Трек 10 нет в базе данных
Трек 11 нет в базе данных
Трек 12 нет в базе данных
Трек 13 нет в базе данных
Ни одного трека нет в базе AccurateRip

Конец отчёта
Download

Войдите для скачивания торрент-файла

Как скачивать  ·   Правила трекера



Последний раз редактировалось: etrusk (2014-07-09 12:59), всего редактировалось 3 раз(а)
[Профиль]  [ЛС] 

Владимир Лухов

Стаж: 6 лет 5 месяцев

Сообщений: 105

Откуда: Саратов

Russia

post 11-Ноя-2010 02:07 (спустя 1 месяц 8 дней)

[Цитировать] 

Савсибо

_________________
С уважением. Владимир.
[Профиль]  [ЛС] 

Виктор13

post 30-Ноя-2010 02:03 (спустя 18 дней)

[Цитировать] 

Спасибо.)
 
Показать сообщения:    
Ответить на тему

Текущее время: 22-Фев 05:38

Часовой пояс: GMT + 4



Вы не можете начинать темы
Вы не можете отвечать на сообщения
Вы не можете редактировать свои сообщения
Вы не можете удалять свои сообщения
Вы не можете голосовать в опросах
Вы не можете прикреплять файлы к сообщениям
Вы не можете скачивать файлы