Loading...
Error

(Церковная музыка и церковные хоры (lossless).) "Светлое Христово Воскресение". (Пасхальная утреня). - 2006, APE (image + .cue), lossless

Ответить на тему
Статистика раздачи
Скачали: [ 6 ]
   
 
Автор Сообщение

СЕРГУЛЕТ

Стаж: 7 лет 10 месяцев

Сообщений: 2639

Откуда: LA ROMANA

Dominicanrep

post 21-Фев-2010 21:32

[Цитировать] 

"Светлое Христово Воскресение". (Пасхальная утреня).

pic
Страна: Россия. Сретенский монастырь.
Жанр: Церковная музыка и церковные хоры (lossless).
Год выпуска: 2006
Формат: APE (image + .cue)
Битрейт аудио: lossless
Продолжительность: 01:07:28
Трэклист:
01. Колокольный звон и стихира «Воскресении Твое, Христе Спасе» 06:38
02. Пасхальное начало 04:45
03. Великая ектения
(А. Кастальский) 04:36
04. Пасхальный канон, песнь 1, 3
(Московский распев, Катавасия Л. Ведель,) 03:23
05. Ипакои, Гл. 8
(Напев Валаамского монастыря) 00:56
06. Пасхальный канон, песнь 4, 5, 6 05:26
07. Кондак гл. 8
(Икосгл. 8,напев Валаамского монастыря) 01:39
08. Воскресение Христово видевши
(Киевский распев, гарм. П. Чеснокова) 02:34
09. Пасхальный канон, песнь 7, 8, 9 06:44
10. Ексапостиларий
(Греческий распев, гарм. С. Крылова) 01:47
11. Стихиры Пасхи
(Напев Зосимовой пустыни, гарм. Иером. Нафанаила) 05:20
12. Слово огласительное св. Иоанна Златоуста 04:15
13. Сугубая ектения «Московская»
(Просительная ектения «Уральская») 08:04
14. Окончание утрени 02:18
ЧАСЫ ПАСХИ
15. Христос воскресе!
греческое, латинское, славянское (А. Астафьев) 01:27
16. Воскресение Христово видевши
(А. Архангельский, перелож. архим. Матфея) 02:04
17. Ипакои, кондак, тропари
(Архимандрит Феофан) 03:18
18. Христос воскресе
(А. Кастальский) 02:06
Дополнительная информация: Служащее духовенство: архимандрит Тихон (Шевкунов), иеродиакон Серафим (Чернышук)
Хор Московского Сретенского монастыря
Регент: Никон Жила
Запись произведена в Соборном храме Сретенского монастыря в 2006 г.
EAC log
Exact Audio Copy V0.99 prebeta 5 from 4. May 2009

Отчёт EAC об извлечении, выполненном 21. февраля 2010, 18:14

Various / Светлое Христово Воскресение: Пасхальная утреня

Дисковод: ASUS DRW-2014L1T Adapter: 0 ID: 1

Режим чтения : Скоростной

Коррекция смещения при чтении : 6
Способность читать области Lead-in и Lead-out : Нет
Заполнение пропущенных сэмплов тишиной : Да
Удаление блоков с тишиной в начале и конце : Нет
При вычислениях CRC использовались нулевые сэмплы : Да
Интерфейс : Встроенный Win32-интерфейс для Win NT/2000

Выходной формат : Внутренние WAV-операции
Формат сэмплов : 44.100 Гц; 16 бит; стерео

TOC извлечённого CD

Трек | Старт | Длительность | Начальный сектор | Конечный сектор
---------------------------------------------------------------------
1 | 0:00.00 | 6:38.40 | 0 | 29889
2 | 6:38.40 | 4:45.07 | 29890 | 51271
3 | 11:23.47 | 4:36.13 | 51272 | 71984
4 | 15:59.60 | 3:23.21 | 71985 | 87230
5 | 19:23.06 | 0:56.70 | 87231 | 91500
6 | 20:20.01 | 5:26.15 | 91501 | 115965
7 | 25:46.16 | 1:39.14 | 115966 | 123404
8 | 27:25.30 | 2:34.08 | 123405 | 134962
9 | 29:59.38 | 6:44.66 | 134963 | 165328
10 | 36:44.29 | 1:47.57 | 165329 | 173410
11 | 38:32.11 | 5:20.12 | 173411 | 197422
12 | 43:52.23 | 4:15.20 | 197423 | 216567
13 | 48:07.43 | 8:04.06 | 216568 | 252873
14 | 56:11.49 | 2:18.37 | 252874 | 263260
15 | 58:30.11 | 1:27.64 | 263261 | 269849
16 | 59:58.00 | 2:04.59 | 269850 | 279208
17 | 62:02.59 | 3:18.62 | 279209 | 294120
18 | 65:21.46 | 2:06.58 | 294121 | 303628

Характеристики диапазона извлечения и сообщения об ошибках

Выбранный диапазон

Имя файла C:\Various - Светлое Христово Воскресение Пасхальная утреня.wav

Проблемы синхронизации 0:00:42
Проблемы синхронизации 0:53:05

Пиковый уровень 98.8 %
CRC копии 81E5F9EE
Копирование завершено

Ошибок не произошло

Конец отчёта
Download

Войдите для скачивания торрент-файла

Как скачивать  ·   Правила трекера



Последний раз редактировалось: СЕРГУЛЕТ (2010-02-21 22:07), всего редактировалось 1 раз
[Профиль]  [ЛС] 

Юрий-Георгий

Стаж: 6 лет 11 месяцев

Сообщений: 44

Russia

post 21-Фев-2010 21:55 (спустя 22 минуты)

[Цитировать] 

Готовимся к Светлому Христову Воскресению! Качаем. Огромное спасибо за раздачу!
Уважаемый СЕРГУЛЕТ! Не могу третий день скачать вашу раздачу Пасхальная Литургия". Хор под управлением Петра Спасского. Париж. Включите, пожалуйста, раздачу.
[Профиль]  [ЛС] 

salamatovn

Стаж: 6 лет 9 месяцев

Сообщений: 28

Russia

post 26-Мар-2011 22:43 (спустя 1 год 1 месяц)

[Цитировать] 

Очень нужная раздача, но, к сожалению, никого из раздающих...Если бы кто встал на раздачу...
[Профиль]  [ЛС] 

salamatovn

Стаж: 6 лет 9 месяцев

Сообщений: 28

Russia

post 26-Мар-2011 23:09 (спустя 26 минут)

[Цитировать] 

Уважаемый СЕРГУЛЕТ! Восхищаюсь Вашим терпением, горением к православию, оперативностью ! Спаси Вас Бог!
[Профиль]  [ЛС] 

vanish_k

Стаж: 4 года 8 месяцев

Сообщений: 7

post 10-Мар-2012 18:30 (спустя 11 месяцев)

[Цитировать] 

Нельзя ли раздать, пжл...

И тут никого? АУУУУУУУ...

-Спасибо!!!
[Профиль]  [ЛС] 

shymsknik

Стаж: 5 лет 10 месяцев

Сообщений: 179

Russia

post 18-Апр-2012 14:52 (спустя 1 месяц 7 дней)

[Цитировать] 

СЕРГУЛЕТ! Спаси вас Господи!
[Профиль]  [ЛС] 

andreich12y

Стаж: 5 лет 6 месяцев

Сообщений: 8

Откуда: Москва

Serbia

post 22-Апр-2012 22:09 (спустя 4 дня)

[Цитировать] 

Благодарю. А обложек нет ли?
[Профиль]  [ЛС] 

akshub

post 08-Янв-2013 18:39 (спустя 8 месяцев)

[Цитировать] 

Спаси вас Господи
 

sky-watcher

Стаж: 1 год 7 месяцев

Сообщений: 1

Belarus

post 17-Окт-2015 01:48 (спустя 2 года 9 месяцев)

[Цитировать] 

Для тех, кто не может скачать - эта запись есть на "рутрэкере"
[Профиль]  [ЛС] 
Показать сообщения:    
Ответить на тему

Текущее время: 09-Дек 04:05

Часовой пояс: GMT + 4



Вы не можете начинать темы
Вы не можете отвечать на сообщения
Вы не можете редактировать свои сообщения
Вы не можете удалять свои сообщения
Вы не можете голосовать в опросах
Вы не можете прикреплять файлы к сообщениям
Вы не можете скачивать файлы