Loading...
Error

(Акафисты, каноны, молебны (lossless)) "Акафист Святителю Николаю Чудотворцу". 2CD. Ансамбль церковных певчих "Сретение".- 2007, APE (image + .cue), lossless

Ответить на тему
Статистика раздачи
   
 
Автор Сообщение

СЕРГУЛЕТ

Стаж: 8 лет 8 месяцев

Сообщений: 2640

Откуда: LA ROMANA

Dominicanrep

post 27-Дек-2009 14:46

[Цитировать] 

"Акафист Святителю Николаю Чудотворцу". 2CD. Ансамбль церковных певчих "Сретение".

pic
Страна: Украина. Дмитрий Болгарский.
Жанр: Акафисты, каноны, молебны (lossless)
Год выпуска: 2007
Формат: APE (image + .cue)
Битрейт аудио: lossless
Продолжительность: 00:44:00+01:10:01
Содержание:
Диск I.: Славянская певческая традиция
1.Бог Господь, глас 4 • 2, Тропарь «Правило веры»
Акафист
3-26. Кондак, Икос 1-12 • 27-28. Кондак 13 • 29-30. Икос, Кондак 1 • 31, Молитва «О, всесвятый Николае» • 32. Величание, распев Киево-Печерской Лавры • 33. Стихира «Наследниче Божий» распев Киево-Печерской Лавры гарм. И.Сахно

Диск 2.: Византийская певческая традиция
1. Бог Господь, глас 4
• 2. Тропарь, Слава и ныне Богородичен
Акафист
3-26. Кондак, Икос 1-12 • 27. Кондак 13
• 28-29. Икос, Кондак 1 • 30. Молитва
• 31. Псалом избранный
Обложки+Содержание
picpicpic]
EAC log
Exact Audio Copy V0.99 prebeta 5 from 4. May 2009

Отчёт EAC об извлечении, выполненном 25. декабря 2009, 11:49

Unknown Artist / Акафист Святителю Николаю-1

Дисковод: ASUS DRW-2014L1T Adapter: 0 ID: 1

Режим чтения : Скоростной

Коррекция смещения при чтении : 6
Способность читать области Lead-in и Lead-out : Нет
Заполнение пропущенных сэмплов тишиной : Да
Удаление блоков с тишиной в начале и конце : Нет
При вычислениях CRC использовались нулевые сэмплы : Да
Интерфейс : Встроенный Win32-интерфейс для Win NT/2000

Выходной формат : Внутренние WAV-операции
Формат сэмплов : 44.100 Гц; 16 бит; стерео

TOC извлечённого CD

Трек | Старт | Длительность | Начальный сектор | Конечный сектор
---------------------------------------------------------------------
1 | 0:00.00 | 1:26.01 | 0 | 6450
2 | 1:26.01 | 0:54.56 | 6451 | 10556
3 | 2:20.57 | 1:00.49 | 10557 | 15105
4 | 3:21.31 | 1:49.02 | 15106 | 23282
5 | 5:10.33 | 0:36.64 | 23283 | 26046
6 | 5:47.22 | 2:03.17 | 26047 | 35288
7 | 7:50.39 | 0:43.39 | 35289 | 38552
8 | 8:34.03 | 1:51.52 | 38553 | 46929
9 | 10:25.55 | 0:37.66 | 46930 | 49770
10 | 11:03.46 | 1:49.32 | 49771 | 57977
11 | 12:53.03 | 0:48.14 | 57978 | 61591
12 | 13:41.17 | 1:52.67 | 61592 | 70058
13 | 15:34.09 | 0:38.62 | 70059 | 72970
14 | 16:12.71 | 1:50.74 | 72971 | 81294
15 | 18:03.70 | 0:43.54 | 81295 | 84573
16 | 18:47.49 | 1:53.11 | 84574 | 93059
17 | 20:40.60 | 0:38.24 | 93060 | 95933
18 | 21:19.09 | 1:51.39 | 95934 | 104297
19 | 23:10.48 | 0:37.63 | 104298 | 107135
20 | 23:48.36 | 1:55.10 | 107136 | 115770
21 | 25:43.46 | 0:45.37 | 115771 | 119182
22 | 26:29.08 | 1:53.37 | 119183 | 127694
23 | 28:22.45 | 0:41.18 | 127695 | 130787
24 | 29:03.63 | 1:54.04 | 130788 | 139341
25 | 30:57.67 | 0:43.18 | 139342 | 142584
26 | 31:41.10 | 2:06.41 | 142585 | 152075
27 | 33:47.51 | 1:31.53 | 152076 | 158953
28 | 35:19.29 | 0:56.28 | 158954 | 163181
29 | 36:15.57 | 1:49.56 | 163182 | 171412
30 | 38:05.38 | 0:59.48 | 171413 | 175885
31 | 39:05.11 | 1:10.24 | 175886 | 181159
32 | 40:15.35 | 0:46.57 | 181160 | 184666
33 | 41:02.17 | 2:56.39 | 184667 | 197905

Характеристики диапазона извлечения и сообщения об ошибках

Выбранный диапазон

Имя файла C:\Unknown Artist - Акафист Святителю Николаю-1.wav

Проблемы синхронизации 0:00:38

Пиковый уровень 95.4 %
CRC копии B1BF44A2
Копирование завершено

Ошибок не произошло

Конец отчёта

CD2.
Exact Audio Copy V0.99 prebeta 5 from 4. May 2009

Отчёт EAC об извлечении, выполненном 25. декабря 2009, 11:58

Unknown Artist / Акафист Святителю Николаю-2

Дисковод: ASUS DRW-2014L1T Adapter: 0 ID: 1

Режим чтения : Скоростной

Коррекция смещения при чтении : 6
Способность читать области Lead-in и Lead-out : Нет
Заполнение пропущенных сэмплов тишиной : Да
Удаление блоков с тишиной в начале и конце : Нет
При вычислениях CRC использовались нулевые сэмплы : Да
Интерфейс : Встроенный Win32-интерфейс для Win NT/2000

Выходной формат : Внутренние WAV-операции
Формат сэмплов : 44.100 Гц; 16 бит; стерео

TOC извлечённого CD

Трек | Старт | Длительность | Начальный сектор | Конечный сектор
---------------------------------------------------------------------
1 | 0:00.00 | 1:29.35 | 0 | 6709
2 | 1:29.35 | 1:23.61 | 6710 | 12995
3 | 2:53.21 | 8:37.31 | 12996 | 51801
4 | 11:30.52 | 2:24.16 | 51802 | 62617
5 | 13:54.68 | 1:10.00 | 62618 | 67867
6 | 15:04.68 | 2:26.48 | 67868 | 78865
7 | 17:31.41 | 1:15.22 | 78866 | 84512
8 | 18:46.63 | 2:25.73 | 84513 | 95460
9 | 21:12.61 | 0:55.34 | 95461 | 99619
10 | 22:08.20 | 2:09.33 | 99620 | 109327
11 | 24:17.53 | 1:18.68 | 109328 | 115245
12 | 25:36.46 | 2:29.54 | 115246 | 126474
13 | 28:06.25 | 0:59.10 | 126475 | 130909
14 | 29:05.35 | 2:21.10 | 130910 | 141494
15 | 31:26.45 | 1:14.58 | 141495 | 147102
16 | 32:41.28 | 2:33.28 | 147103 | 158605
17 | 35:14.56 | 0:53.16 | 158606 | 162596
18 | 36:07.72 | 2:24.22 | 162597 | 173418
19 | 38:32.19 | 1:02.09 | 173419 | 178077
20 | 39:34.28 | 2:42.10 | 178078 | 190237
21 | 42:16.38 | 0:57.32 | 190238 | 194544
22 | 43:13.70 | 2:19.09 | 194545 | 204978
23 | 45:33.04 | 1:08.66 | 204979 | 210144
24 | 46:41.70 | 2:42.14 | 210145 | 222308
25 | 49:24.09 | 1:10.57 | 222309 | 227615
26 | 50:34.66 | 2:34.14 | 227616 | 239179
27 | 53:09.05 | 4:01.52 | 239180 | 257306
28 | 57:10.57 | 2:27.73 | 257307 | 268404
29 | 59:38.55 | 1:56.32 | 268405 | 277136
30 | 61:35.12 | 1:32.49 | 277137 | 284085
31 | 63:07.61 | 7:02.00 | 284086 | 315735

Характеристики диапазона извлечения и сообщения об ошибках

Выбранный диапазон

Имя файла C:\Unknown Artist - Акафист Святителю Николаю-2.wav

Пиковый уровень 95.5 %
CRC копии FD12AC29
Копирование... OK

Ошибок не произошло

Конец отчёта
Download

Войдите на сайт, чтобы увидеть полную информацию.

Как скачивать  ·   Правила трекера

[Профиль]  [ЛС] 

brd_eugene

Стаж: 8 лет 10 месяцев

Сообщений: 64

Ukraine

post 29-Дек-2009 23:07 (спустя 2 дня 8 часов)

[Цитировать] 

Спаси Вас Господи!!!!!!!!!!!!!
[Профиль]  [ЛС] 

Gervasiyi

post 03-Янв-2010 14:20 (спустя 4 дня)

[Цитировать] 

СВЯТИТЕЛЬ НИКОЛАЙ покровитель нашей страждущий РУСИ!Спаси ВАС ГОСПОДИ!!!!!!!!!!!!!!!
 

vironika

Стаж: 6 лет 5 месяцев

Сообщений: 15

post 28-Дек-2011 20:47 (спустя 1 год 11 месяцев)

[Цитировать] 

...спасибо
[Профиль]  [ЛС] 

Славик57

Стаж: 7 лет 7 месяцев

Сообщений: 5

Russia

post 22-Май-2012 08:49 (спустя 4 месяца 24 дня)

[Цитировать] 

Спаси Вас Господи
[Профиль]  [ЛС] 

y2011vv

Стаж: 6 лет 4 месяца

Сообщений: 2

post 19-Дек-2012 09:58 (спустя 6 месяцев)

[Цитировать] 

С праздником Святителя Николая,
архиепископа Мир Ликийских чудотворца!!!
[Профиль]  [ЛС] 

CEPBEP4

Стаж: 6 лет 7 месяцев

Сообщений: 133

Откуда: ОРЕНБУРГ

Russia

post 10-Июн-2015 00:07 (спустя 2 года 5 месяцев)

[Цитировать] 

Спасибо, забираю.

_________________
pic
pic 100 Мбит/с pic 100 Мбит/с pic
[Профиль]  [ЛС] 
Показать сообщения:    
Ответить на тему

Текущее время: 21-Окт 10:39

Часовой пояс: GMT + 4



Вы не можете начинать темы
Вы не можете отвечать на сообщения
Вы не можете редактировать свои сообщения
Вы не можете удалять свои сообщения
Вы не можете голосовать в опросах
Вы не можете прикреплять файлы к сообщениям
Вы не можете скачивать файлы