Loading...
Error

(Церковная музыка Греции, Афона и Сербии (lossless)) "Христос Воскресе". Дивна Любоевич и "Мелоди". - 2008, APE (image + .cue), lossless

Ответить на тему
Статистика раздачи
   
 
Автор Сообщение

СЕРГУЛЕТ

Стаж: 8 лет 7 месяцев

Сообщений: 2640

Откуда: LA ROMANA

Dominicanrep

post 26-Дек-2009 16:29

[Цитировать] 

"Христос Воскресе". Дивна Любоевич и "Мелоди".

pic
Страна: Беларусь. Свято-Елисветинский монастырь.
Жанр: Церковная музыка Греции, Афона и Сербии (lossless)
Год выпуска: 2008
Формат: APE (image + .cue)
Битрейт аудио: lossless
Продолжительность: 00:37:14
Содержание:
1.Стихиры Пасхи. Византийский распев
2. «Анастасеос имера» («Воскресения день»). Византийский распев
3. «Плотию уснув». Сербский распев
4. Статии. Сербский распев
5. «Христос анести» («Христос воскресе»), тропарь Пасхи
6. «Кто Бог велий, яко Бог наш», великий прокимен
7. «Приидите, ублажим Иосифа». П. Чесноков
8. «Ангельский собор». Византийский распев
9. «Воскресение Твое». «Преблагословенна еси». Сербский распев
10. «Елицы во Христа крестистеся». Византийский распев
11. «Днесь спасение». «Да веселятся». Сербский распев
12. Херувимская песнь. Д. Ковалевский
13. «Ангел вопияше». Сербский распев, обр, Д. Любоввич
14. «Люди, ликуйте». Святой владыка Нинолай (Велимирович)
15. «Христос Воскресе», тропарь Пасхи
Обложки+Содержание
picpic
EAC log
Exact Audio Copy V0.99 prebeta 5 from 4. May 2009

Отчёт EAC об извлечении, выполненном 25. декабря 2009, 7:36

Дивна Любоевич / Христос Воскресе

Дисковод: ASUS BC-1205PT Adapter: 1 ID: 0

Режим чтения : Достоверность
Использование точного потока : Да
Отключение кэша аудио : Да
Использование указателей C2 : Нет

Коррекция смещения при чтении : 667
Способность читать области Lead-in и Lead-out : Нет
Заполнение пропущенных сэмплов тишиной : Да
Удаление блоков с тишиной в начале и конце : Нет
При вычислениях CRC использовались нулевые сэмплы : Да
Интерфейс : Встроенный Win32-интерфейс для Win NT/2000

Выходной формат : Внутренние WAV-операции
Формат сэмплов : 44.100 Гц; 16 бит; стерео

TOC извлечённого CD

Трек | Старт | Длительность | Начальный сектор | Конечный сектор
---------------------------------------------------------------------
1 | 0:00.00 | 3:34.45 | 0 | 16094
2 | 3:34.45 | 1:27.58 | 16095 | 22677
3 | 5:02.28 | 1:00.73 | 22678 | 27250
4 | 6:03.26 | 3:56.11 | 27251 | 44961
5 | 9:59.37 | 2:04.51 | 44962 | 54312
6 | 12:04.13 | 2:10.55 | 54313 | 64117
7 | 14:14.68 | 3:25.10 | 64118 | 79502
8 | 17:40.03 | 5:01.12 | 79503 | 102089
9 | 22:41.15 | 1:34.44 | 102090 | 109183
10 | 24:15.59 | 3:06.01 | 109184 | 123134
11 | 27:21.60 | 1:51.06 | 123135 | 131465
12 | 29:12.66 | 3:06.52 | 131466 | 145467
13 | 32:19.43 | 1:43.08 | 145468 | 153200
14 | 34:02.51 | 2:27.39 | 153201 | 164264
15 | 36:30.15 | 0:42.40 | 164265 | 167454

Характеристики диапазона извлечения и сообщения об ошибках

Выбранный диапазон

Имя файла C:\Дивна Любоевич - Христос Воскресе.wav

Пиковый уровень 100.0 %
Качество диапазона 100.0 %
CRC копии 483C1842
Копирование... OK

Ошибок не произошло

AccurateRip: сводка
Трек 1 нет в базе данных
Трек 2 нет в базе данных
Трек 3 нет в базе данных
Трек 4 нет в базе данных
Трек 5 нет в базе данных
Трек 6 нет в базе данных
Трек 7 нет в базе данных
Трек 8 нет в базе данных
Трек 9 нет в базе данных
Трек 10 нет в базе данных
Трек 11 нет в базе данных
Трек 12 нет в базе данных
Трек 13 нет в базе данных
Трек 14 нет в базе данных
Трек 15 нет в базе данных
Ни одного трека нет в базе AccurateRip

Конец отчёта
Download

Войдите на сайт, чтобы увидеть полную информацию.

Как скачивать  ·   Правила трекера

[Профиль]  [ЛС] 

ann18

Стаж: 8 лет

Сообщений: 177

Откуда: Иркутск

Russia

post 27-Дек-2009 05:56 (спустя 13 часов)

[Цитировать] 

Благодарю за раздачу. Храни Господь!
[Профиль]  [ЛС] 

klb3317

Стаж: 8 лет 5 месяцев

Сообщений: 33

Russia

post 04-Апр-2010 14:01 (спустя 3 месяца 8 дней)

[Цитировать] 

Спасибо большое.
Христос Воскресе!
[Профиль]  [ЛС] 

Mayfat

post 06-Окт-2010 17:14 (спустя 6 месяцев)

[Цитировать] 

Огромная Вам моя признательность!!
 

minaton

Стаж: 6 лет 1 месяц

Сообщений: 4

Russia

post 29-Авг-2011 22:14 (спустя 10 месяцев)

[Цитировать] 

Благодарю за раздачу!
Удобнее для простых людей было бы в mp3...
[Профиль]  [ЛС] 

елена пачковская

Стаж: 5 лет 10 месяцев

Сообщений: 72

Russia

post 01-Дек-2011 17:27 (спустя 3 месяца 1 день)

[Цитировать] 

Спасибо!
[Профиль]  [ЛС] 
Показать сообщения:    
Ответить на тему

Текущее время: 24-Сен 14:29

Часовой пояс: GMT + 4



Вы не можете начинать темы
Вы не можете отвечать на сообщения
Вы не можете редактировать свои сообщения
Вы не можете удалять свои сообщения
Вы не можете голосовать в опросах
Вы не можете прикреплять файлы к сообщениям
Вы не можете скачивать файлы