Loading...
Error

(Церковная музыка и церковные хоры (lossless).) "Хор храма Св. Александра Невского в Софии - в честь 2000 летия Рождества Христова" - 1999, FLAC. (image + .cue), lossless

Ответить на тему
Статистика раздачи
   
 
Автор Сообщение

СЕРГУЛЕТ

Стаж: 12 лет

Сообщений: 2637

Откуда: LA ROMANA

Dominicanrep

post 03-Дек-2009 15:09

[Цитировать] 

"Хор храма Св. Александра Невского в Софии - в честь 2000 летия Рождества Христова"
pic
Страна: Болгария
Жанр: Церковная музыка и церковные хоры (lossless)
Год выпуска: 1999
Формат: FLAC. (image + .cue)
Битрейт аудио: lossless
Общее время звучания: 01:08:34
Наличие сканов: да
Трэклист:
01. Тропарь на Рождество Христово 1:21
02. Слава в Вышних Богу - Д. Бортнянский 5:24
03. Отче наш - Дубенский 2:42
04. Херувимская - Д. Христов 8:10
05. Милость Мира - А. Попконстантинов 8:00
06. Во царствии Твоем - Д. Христов 2:21
07. Совет Превечный - П. Чесноков 3:48
08. Ныне Отпущаеши - Н. Соколов 3:06
09. Тебе Поем - И. Петров-Йохан 3:59
10. Спаси Боже - П. Чесноков 4:02
11. Великое Славословие - И. Николаев 9:53
12. Разбойника Благоразумнаго - П. Динев 3:02
13. Ангел Вопияше - П. Чесноков 3:34
14. Сугубая Ектиния - А. Гречанинов 5:43
15. Многолетия - Д. Христов 3:37

EAC log
Exact Audio Copy V0.99 prebeta 4 from 23. January 2008

Отчёт EAC об извлечении, выполненном 26. сентября 2009, 21:33

Хор Храма Св Александра Невского в Софии / 2000 летие от Рождества Христова

Дисковод: ATAPI iHAP322 8 Adapter: 0 ID: 1

Режим чтения : Достоверность
Использование точного потока : Да
Отключение кэша аудио : Да
Использование указателей C2 : Нет

Коррекция смещения при чтении : 6
Способность читать области Lead-in и Lead-out : Нет
Заполнение пропущенных сэмплов тишиной : Да
Удаление блоков с тишиной в начале и конце : Нет
При вычислениях CRC использовались нулевые сэмплы : Да
Интерфейс : Встроенный Win32-интерфейс для Win NT/2000

Выходной формат : Пользовательский кодировщик
Выбранный битрейт : 128 kBit/s
Качество : Высокий
Добавление ID3-тэга : Нет
Утилита сжатия : C:\Program Files\Exact Audio Copy\FLAC\FLAC.EXE
Дополнительные параметры : -8 -V -T "ARTIST=%a" -T "TITLE=%t" -T "ALBUM=%g" -T "DATE=%y" -T "TRACKNUMBER=%n" -T "GENRE=%m" -T "COMMENT=EAC FLAC -8" %s

TOC извлечённого CD

Трек | Старт | Длительность | Начальный сектор | Конечный сектор
---------------------------------------------------------------------
1 | 0:00.00 | 1:20.48 | 0 | 6047
2 | 1:20.48 | 5:23.26 | 6048 | 30298
3 | 6:43.74 | 2:41.03 | 30299 | 42376
4 | 9:25.02 | 8:09.16 | 42377 | 79067
5 | 17:34.18 | 7:59.12 | 79068 | 115004
6 | 25:33.30 | 2:20.21 | 115005 | 125525
7 | 27:53.51 | 3:47.41 | 125526 | 142591
8 | 31:41.17 | 3:05.55 | 142592 | 156521
9 | 34:46.72 | 3:58.09 | 156522 | 174380
10 | 38:45.06 | 4:01.25 | 174381 | 192480
11 | 42:46.31 | 9:52.70 | 192481 | 236950
12 | 52:39.26 | 3:01.54 | 236951 | 250579
13 | 55:41.05 | 3:33.30 | 250580 | 266584
14 | 59:14.35 | 5:42.02 | 266585 | 292236
15 | 64:56.37 | 3:36.44 | 292237 | 308480

Характеристики диапазона извлечения и сообщения об ошибках

Выбранный диапазон

Имя файла C:\WAV\Хор Храма Св Александра Невского в Софии - 2000 летие от Рождества Христова\Хор Храма Св Александра Невского в Софии - 2000 летие от Рождества Христова.wav

Пиковый уровень 65.5 %
Качество диапазона 100.0 %
CRC копии 9DE01CB4
Копирование... OK

Ошибок не произошло

AccurateRip: сводка

Трек 1 нет в базе данных
Трек 2 нет в базе данных
Трек 3 нет в базе данных
Трек 4 нет в базе данных
Трек 5 нет в базе данных
Трек 6 нет в базе данных
Трек 7 нет в базе данных
Трек 8 нет в базе данных
Трек 9 нет в базе данных
Трек 10 нет в базе данных
Трек 11 нет в базе данных
Трек 12 нет в базе данных
Трек 13 нет в базе данных
Трек 14 нет в базе данных
Трек 15 нет в базе данных

Ни одного трека нет в базе AccurateRip

Конец отчёта

Обложки и содержание
pic pic pic pic pic

Дополнительная информация
Запись хора Патриаршего Кафедрального храма-памятника "Св. Александра Невского" в Софии.
Главный дирижер Димитар Димитров.


Download

Войдите на сайт, чтобы увидеть полную информацию.

Как скачивать  ·   Правила трекера

[Профиль]  [ЛС] 
Показать сообщения:    
Ответить на тему

Текущее время: 19-Апр 19:47

Часовой пояс: GMT + 4



Вы не можете начинать темы
Вы не можете отвечать на сообщения
Вы не можете редактировать свои сообщения
Вы не можете удалять свои сообщения
Вы не можете голосовать в опросах
Вы не можете прикреплять файлы к сообщениям
Вы не можете скачивать файлы