Loading...
Error

(Церковная музыка и церковные хоры (lossless).) "Sacred Treasures" Choral Masterworks from Russia. - 2000, FLAC (image + .cue), lossless

Ответить на тему
Статистика раздачи
   
 
Автор Сообщение

СЕРГУЛЕТ

Стаж: 12 лет

Сообщений: 2637

Откуда: LA ROMANA

Dominicanrep

post 03-Дек-2009 01:16

[Цитировать] 

"Sacred Treasures" Choral Masterworks from Russia
pic
Страна: USA
Жанр: Церковная музыка и церковные хоры (lossless)
Год выпуска: 2000
Формат: FLAC (image + .cue)
Битрейт аудио: lossless
Продолжительность: 01:02:55
Наличие сканов: да
Трэклист:
01. "Русские Соборные Колокола" 0:22
02. "Великая ектения: Литургия святого Иоанна Златоуста Сергея Рахманинова" 3:48
03. "Хвалебный гимн: Литургия святого Иоанна Златоуста Сергея Рахманинова" 3:04
04. "Гимн Херувимов "(отрывок): Литургия святого Иоанна Златоуста Сергея Рахманинова" 4:43
05. "Гимн Херувимов "(отрывок) Дмитрия Бортнянского" 4:02
06. "Отче наш" Николая Кедрова-старшего." 3:57
07. "Пламенная молитва (отрывок ): Литургия святого Иоанна Златоуста Сергея Рахманинова" 3:50
08. "Благородный Иосиф: Булгарский Роспев", аранжировка Петра Турчанинова" 2:39
09. "Аминь и Духом Твоим: Литургия святого Иоанна Златоуста Петра Ильича Чайковского" 1:20
10. "Русская Монастырская Вечерня (Отрывок)" 1:29
11. "Благослови Господа, душа моя: Литургия святого Иоанна Златоуста Сергея Рахманинова" 5:13
12. "Гимн Херувимов (отрывок): Литургия святого Иоанна Златоуста Петра Ильича Чайковского" 7:41
13. "Гимн Херувимов (отрывок/под редакцией) Добри Христова" 6:41
14. "Отче наш: Литургия святого Иоанна Златоуста Петра Ильича Чайковского" 3:34
15. "Я выбрал Блаженного Александра Гречанинова" 4:52
16. "Гимн Херувимов" Григория Львовского"5:00
17. "Последние Колокола"

EAC log
Exact Audio Copy V0.99 prebeta 3 from 28. July 2007

Отчёт EAC об извлечении, выполненном 25. ноября 2008, 21:29

Various / Sacred Treasures - Choral Masterworks from Russia

Дисковод: LITE-ON DVDRW SOHW-1653S Adapter: 0 ID: 2

Режим чтения : Достоверность
Использование точного потока : Да
Отключение кэша аудио : Да
Использование указателей C2 : Нет

Коррекция смещения при чтении : 12
Способность читать области Lead-in и Lead-out : Нет
Заполнение пропущенных сэмплов тишиной : Да
Удаление блоков с тишиной в начале и конце : Нет
При вычислениях CRC использовались нулевые сэмплы : Да
Интерфейс : Установленный внешний ASPI-интерфейс

Выходной формат : Внутренние WAV-операции
Формат сэмплов : 44.100 Гц; 16 бит; стерео

TOC извлечённого CD

Трек | Старт | Длительность | Начальный сектор | Конечный сектор
---------------------------------------------------------------------
1 | 0:00.00 | 0:22.15 | 0 | 1664
2 | 0:22.15 | 3:48.30 | 1665 | 18794
3 | 4:10.45 | 3:03.47 | 18795 | 32566
4 | 7:14.17 | 4:43.19 | 32567 | 53810
5 | 11:57.36 | 4:02.19 | 53811 | 71979
6 | 15:59.55 | 3:56.40 | 71980 | 89719
7 | 19:56.20 | 3:49.65 | 89720 | 106959
8 | 23:46.10 | 2:38.47 | 106960 | 118856
9 | 26:24.57 | 1:19.72 | 118857 | 124853
10 | 27:44.54 | 1:28.56 | 124854 | 131509
11 | 29:13.35 | 5:13.02 | 131510 | 154986
12 | 34:26.37 | 7:41.07 | 154987 | 189568
13 | 42:07.44 | 6:40.43 | 189569 | 219611
14 | 48:48.12 | 3:33.51 | 219612 | 235637
15 | 52:21.63 | 4:52.22 | 235638 | 257559
16 | 57:14.10 | 5:00.30 | 257560 | 280089
17 | 62:14.40 | 0:40.20 | 280090 | 283109

Характеристики диапазона извлечения и сообщения об ошибках

Выбранный диапазон

Имя файла E:\РАЗДАЧА\Sacred Treasures - Choral Masterworks from Russia\Various - Sacred Treasures - Choral Masterworks from Russia.wav

Пиковый уровень 98.8 %
Качество диапазона 100.0 %
CRC копии 0B059C86
Копирование... OK

Ошибок не произошло

AccurateRip: сводка

Трек 1 точное извлечение (доверие 2) [5EC6C24A]
Трек 2 точность не определена (достоверность 3) [CAFB13E0], AccurateRip вернул [23C6AAB9]
Трек 3 точность не определена (достоверность 3) [63C79C21], AccurateRip вернул [BE4377D1]
Трек 4 точность не определена (достоверность 3) [A2BA869E], AccurateRip вернул [37A12FAA]
Трек 5 точность не определена (достоверность 3) [B3C9F84B], AccurateRip вернул [5E10ECDB]
Трек 6 точность не определена (достоверность 3) [C5FF454D], AccurateRip вернул [F9B5F215]
Трек 7 точность не определена (достоверность 3) [102C5B08], AccurateRip вернул [D6800D04]
Трек 8 точность не определена (достоверность 3) [89B37FE5], AccurateRip вернул [AB82B71D]
Трек 9 точность не определена (достоверность 3) [37F1B2DA], AccurateRip вернул [F872A556]
Трек 10 точность не определена (достоверность 3) [DA65A754], AccurateRip вернул [49C4AD5C]
Трек 11 точность не определена (достоверность 3) [67831A1B], AccurateRip вернул [C73BF133]
Трек 12 точность не определена (достоверность 3) [9FB869AC], AccurateRip вернул [8172FA44]
Трек 13 точность не определена (достоверность 3) [CAC65E2F], AccurateRip вернул [B757F91F]
Трек 14 точность не определена (достоверность 3) [36D8DE67], AccurateRip вернул [353DAA33]
Трек 15 точность не определена (достоверность 3) [B39A9315], AccurateRip вернул [B927C0BD]
Трек 16 точность не определена (достоверность 3) [39210070], AccurateRip вернул [9DECEE5C]
Трек 17 точность не определена (достоверность 3) [89194369], AccurateRip вернул [34337F4D]

1 трек(и) скопированы точно
16 трек(и) не удалось проверить на точность

Некоторые треки не прошли проверку на точность

Конец отчёта

Обложки
picpicpicpic

Download

Войдите на сайт, чтобы увидеть полную информацию.

Как скачивать  ·   Правила трекера

[Профиль]  [ЛС] 

yeuxs05

Стаж: 5 месяцев 7 дней

Сообщений: 1

post 28-Сен-2020 06:36 (спустя 10 лет)

[Цитировать] 

Gracia!!!
[Профиль]  [ЛС] 
Показать сообщения:    
Ответить на тему

Текущее время: 05-Мар 16:54

Часовой пояс: GMT + 4



Вы не можете начинать темы
Вы не можете отвечать на сообщения
Вы не можете редактировать свои сообщения
Вы не можете удалять свои сообщения
Вы не можете голосовать в опросах
Вы не можете прикреплять файлы к сообщениям
Вы не можете скачивать файлы