Loading...
Error

(Церковная музыка и церковные хоры (lossless).) "Молебный канон иконе Божией Матери «Вратарница» (Иверская)". - 2009, APE (image + .cue), lossless

Страницы:  1, 2  След.

Ответить на тему
Статистика раздачи
Скачали: [ 8 ]
   
 
Автор Сообщение

СЕРГУЛЕТ

Стаж: 8 лет 3 месяца

Сообщений: 2639

Откуда: LA ROMANA

Dominicanrep

post 18-Ноя-2009 20:15

[Цитировать] 

"Молебный канон иконе Божией Матери «Вратарница» (Иверская)".

pic
Страна: Греция. Монастырь "Ивирон", Святая Гора Афон.
Жанр: Церковная музыка и церковные хоры (lossless).
Год выпуска: 2009
Формат: APE (image + .cue)
Битрейт аудио: lossless
Продолжительность: 00:54:02
Содержание+Обложки
picpic
Поёт братский хор монастыря Ивирон.
EAC log
Exact Audio Copy V0.99 prebeta 5 from 4. May 2009

Отчёт EAC об извлечении, выполненном 18. ноября 2009, 7:14

Поёт братский хор монастыря Ивирон / Молебный канон иконе Божией Матери «Вратарница» (Иверская)

Дисковод: ASUS BC-1205PT Adapter: 1 ID: 0

Режим чтения : Достоверность
Использование точного потока : Да
Отключение кэша аудио : Да
Использование указателей C2 : Нет

Коррекция смещения при чтении : 667
Способность читать области Lead-in и Lead-out : Нет
Заполнение пропущенных сэмплов тишиной : Да
Удаление блоков с тишиной в начале и конце : Нет
При вычислениях CRC использовались нулевые сэмплы : Да
Интерфейс : Встроенный Win32-интерфейс для Win NT/2000

Выходной формат : Внутренние WAV-операции
Формат сэмплов : 44.100 Гц; 16 бит; стерео

TOC извлечённого CD

Трек | Старт | Длительность | Начальный сектор | Конечный сектор
---------------------------------------------------------------------
1 | 0:00.00 | 4:19.00 | 0 | 19424
2 | 4:19.00 | 6:49.37 | 19425 | 50136
3 | 11:08.37 | 10:25.51 | 50137 | 97062
4 | 21:34.13 | 9:47.46 | 97063 | 141133
5 | 31:21.59 | 11:33.37 | 141134 | 193145
6 | 42:55.21 | 3:30.09 | 193146 | 208904
7 | 46:25.30 | 2:26.56 | 208905 | 219910
8 | 48:52.11 | 2:25.28 | 219911 | 230813
9 | 51:17.39 | 2:42.56 | 230814 | 243019

Характеристики диапазона извлечения и сообщения об ошибках

Выбранный диапазон

Имя файла C:\Поёт братский хор монастыря Ивирон - Молебный канон иконе Божией Матери «Вратарница» (Иверская).wav

Пиковый уровень 97.7 %
Качество диапазона 100.0 %
CRC копии 611C6033
Копирование... OK

Ошибок не произошло
Download

Войдите для скачивания торрент-файла

Как скачивать  ·   Правила трекера

[Профиль]  [ЛС] 

rexxxer

Стаж: 7 лет 8 месяцев

Сообщений: 137

Откуда: Россия

Russia

post 11-Июл-2010 20:19 (спустя 7 месяцев)

[Цитировать] 

Помогите скачать!

_________________
pic
[Профиль]  [ЛС] 

sistem

post 03-Авг-2011 14:57 (спустя 1 год)

[Цитировать] 

встаньте на раздачу пожалуйста!
 

sistem

post 27-Авг-2011 13:04 (спустя 23 дня)

[Цитировать] 

граждане дайте скачать!
 

Cepera032

Стаж: 6 лет 6 месяцев

Сообщений: 9

post 21-Сен-2011 19:07 (спустя 25 дней)

[Цитировать] 

Спасибо!
[Профиль]  [ЛС] 

vika010288

Стаж: 7 лет 11 месяцев

Сообщений: 459

Georgia

post 16-Окт-2011 20:13 (спустя 25 дней)

[Цитировать] 

ОГРОМНОЕ СПАСИБО!!!
[Профиль]  [ЛС] 

asmus

post 28-Окт-2011 15:45 (спустя 11 дней)

[Цитировать] 

не понял как скачивать...кто-нибудь...помогите чайнику
 

tolkol

post 13-Ноя-2011 16:36 (спустя 16 дней)

[Цитировать] 

СЕРГУЛЕТ
СПАСИБООООО!
 

iveron

Стаж: 5 лет

Сообщений: 5

Откуда: Домодедово

Russia

post 10-Май-2012 15:38 (спустя 5 месяцев 26 дней)

[Цитировать] 

Качаю четвёртый день. И тишина ...
[Профиль]  [ЛС] 

vika010288

Стаж: 7 лет 11 месяцев

Сообщений: 459

Georgia

post 11-Май-2012 22:31 (спустя 1 день 6 часов)

[Цитировать] 

iveron писал(а):

Качаю четвёртый день. И тишина ...
Попробуем помочь.
[Профиль]  [ЛС] 

iveron

Стаж: 5 лет

Сообщений: 5

Откуда: Домодедово

Russia

post 17-Май-2012 13:26 (спустя 5 дней)

[Цитировать] 

Спасибо, но всё не с места, как 6 мая загрузилось 56%, и на этом всё. Иногда сидеры появляются, но процесс стоит. Будем надеяться!
[Профиль]  [ЛС] 

СЕРГУЛЕТ

Стаж: 8 лет 3 месяца

Сообщений: 2639

Откуда: LA ROMANA

Dominicanrep

post 17-Май-2012 13:51 (спустя 25 минут)

[Цитировать] 

Встал, качайте, надеюсь будете поддерживать. Smile
[Профиль]  [ЛС] 

iveron

Стаж: 5 лет

Сообщений: 5

Откуда: Домодедово

Russia

post 17-Май-2012 14:25 (спустя 34 минуты)

[Цитировать] 

Пошла закачка, пошла родимая...
Радуйся Благая Вратарница!!!
[Профиль]  [ЛС] 

iveron

Стаж: 5 лет

Сообщений: 5

Откуда: Домодедово

Russia

post 21-Май-2012 23:05 (спустя 4 дня)

[Цитировать] 

Спасибо!
Закачал. На раздаче.
[Профиль]  [ЛС] 

George1970

Стаж: 4 года

Сообщений: 7

Australia

post 18-Май-2013 04:46 (спустя 11 месяцев)

[Цитировать] 

Thank Yo, Very Nice
[Профиль]  [ЛС] 
Показать сообщения:    
Ответить на тему

Текущее время: 28-Май 18:57

Часовой пояс: GMT + 4



Вы не можете начинать темы
Вы не можете отвечать на сообщения
Вы не можете редактировать свои сообщения
Вы не можете удалять свои сообщения
Вы не можете голосовать в опросах
Вы не можете прикреплять файлы к сообщениям
Вы не можете скачивать файлы