Loading...
Error

(Церковная музыка и церковные хоры (lossless).) "Божественная литургия на праздник св. Марии Магдалины". 2CD. - 2006, APE (image + .cue), lossless

Ответить на тему
Статистика раздачи
   
 
Автор Сообщение

СЕРГУЛЕТ

Стаж: 11 лет

Сообщений: 2637

Откуда: LA ROMANA

Dominicanrep

post 18-Ноя-2009 01:24

[Цитировать] 

"Божественная литургия на праздник св. Марии Магдалины". 2CD.

pic
Страна: Греция.
Жанр: Церковная музыка и церковные хоры (lossless).
Год выпуска: 2006
Формат: APE (image + .cue)
Битрейт аудио: lossless
Продолжительность: 00:53:55+00:43:36

Поёт хор женского киновиального монастыря Благовещения Пресвятой Богородицы Ормилия ( Греция ).
Содержание
pic
EAC log
Exact Audio Copy V0.99 prebeta 5 from 4. May 2009

Отчёт EAC об извлечении, выполненном 17. ноября 2009, 21:12

Поёт хор женского киновиального монастыря Ормилия ( Греция ) / Божественная литургия на праздник св. Марии Магдалины-1

Дисковод: ASUS BC-1205PT Adapter: 1 ID: 0

Режим чтения : Достоверность
Использование точного потока : Да
Отключение кэша аудио : Да
Использование указателей C2 : Нет

Коррекция смещения при чтении : 667
Способность читать области Lead-in и Lead-out : Нет
Заполнение пропущенных сэмплов тишиной : Да
Удаление блоков с тишиной в начале и конце : Нет
При вычислениях CRC использовались нулевые сэмплы : Да
Интерфейс : Встроенный Win32-интерфейс для Win NT/2000

Выходной формат : Внутренние WAV-операции
Формат сэмплов : 44.100 Гц; 16 бит; стерео

TOC извлечённого CD

Трек | Старт | Длительность | Начальный сектор | Конечный сектор
---------------------------------------------------------------------
1 | 0:00.00 | 6:42.11 | 0 | 30160
2 | 6:42.11 | 5:57.42 | 30161 | 56977
3 | 12:39.53 | 1:27.64 | 56978 | 63566
4 | 14:07.42 | 3:57.14 | 63567 | 81355
5 | 18:04.56 | 1:36.28 | 81356 | 88583
6 | 19:41.09 | 3:34.72 | 88584 | 104705
7 | 23:16.06 | 0:47.05 | 104706 | 108235
8 | 24:03.11 | 2:56.49 | 108236 | 121484
9 | 26:59.60 | 9:03.15 | 121485 | 162224
10 | 36:03.00 | 4:34.39 | 162225 | 182813
11 | 40:37.39 | 9:23.65 | 182814 | 225103
12 | 50:01.29 | 2:22.30 | 225104 | 235783
13 | 52:23.59 | 1:30.03 | 235784 | 242536

Характеристики диапазона извлечения и сообщения об ошибках

Выбранный диапазон

Имя файла C:\Поёт хор женского киновиального монастыря Ормилия ( Греция ) - Божественная литургия на праздник св. Марии Магдалины-1.wav

Пиковый уровень 100.0 %
Качество диапазона 100.0 %
CRC копии 412B0CC7
Копирование... OK

Ошибок не произошло

СD2.
Exact Audio Copy V0.99 prebeta 5 from 4. May 2009

Отчёт EAC об извлечении, выполненном 17. ноября 2009, 21:22

Поёт хор женского киновиального монастыря Ормилия ( Греция ) / Божественная литургия на праздник св. Марии Магдалины-2

Дисковод: ASUS BC-1205PT Adapter: 1 ID: 0

Режим чтения : Достоверность
Использование точного потока : Да
Отключение кэша аудио : Да
Использование указателей C2 : Нет

Коррекция смещения при чтении : 667
Способность читать области Lead-in и Lead-out : Нет
Заполнение пропущенных сэмплов тишиной : Да
Удаление блоков с тишиной в начале и конце : Нет
При вычислениях CRC использовались нулевые сэмплы : Да
Интерфейс : Встроенный Win32-интерфейс для Win NT/2000

Выходной формат : Внутренние WAV-операции
Формат сэмплов : 44.100 Гц; 16 бит; стерео

TOC извлечённого CD

Трек | Старт | Длительность | Начальный сектор | Конечный сектор
---------------------------------------------------------------------
1 | 0:00.00 | 7:27.34 | 0 | 33558
2 | 7:27.34 | 1:30.07 | 33559 | 40315
3 | 8:57.41 | 7:43.02 | 40316 | 75042
4 | 16:40.43 | 3:22.31 | 75043 | 90223
5 | 20:02.74 | 4:28.34 | 90224 | 110357
6 | 24:31.33 | 5:08.21 | 110358 | 133478
7 | 29:39.54 | 4:54.17 | 133479 | 155545
8 | 34:33.71 | 3:07.04 | 155546 | 169574
9 | 37:41.00 | 3:46.06 | 169575 | 186530
10 | 41:27.06 | 2:07.65 | 186531 | 196120

Характеристики диапазона извлечения и сообщения об ошибках

Выбранный диапазон

Имя файла C:\Поёт хор женского киновиального монастыря Ормилия ( Греция ) - Божественная литургия на праздник св. Марии Магдалины-2.wav

Пиковый уровень 99.9 %
Качество диапазона 100.0 %
CRC копии 9EE796C1
Копирование... OK

Ошибок не произошло
Download

Войдите на сайт, чтобы увидеть полную информацию.

Как скачивать  ·   Правила трекера

[Профиль]  [ЛС] 

poluno4-nik

Стаж: 9 лет 8 месяцев

Сообщений: 12

post 18-Окт-2012 22:46 (спустя 2 года 11 месяцев)

[Цитировать] 

эх! докачать бы!!!
[Профиль]  [ЛС] 

poluno4-nik

Стаж: 9 лет 8 месяцев

Сообщений: 12

post 26-Окт-2012 23:45 (спустя 8 дней)

[Цитировать] 

было бы очень любезно, если бы кто-нибудь раздал. осталось чуть меньше половины!!!! Sad
ps. уже неактуально...
[Профиль]  [ЛС] 
Показать сообщения:    
Ответить на тему

Текущее время: 13-Авг 16:10

Часовой пояс: GMT + 4



Вы не можете начинать темы
Вы не можете отвечать на сообщения
Вы не можете редактировать свои сообщения
Вы не можете удалять свои сообщения
Вы не можете голосовать в опросах
Вы не можете прикреплять файлы к сообщениям
Вы не можете скачивать файлы