Loading...
Error

(Церковная музыка и церковные хоры (lossless).) "Богородице, упование наше...". Песнопения в честь Пресвятой Богородицы. - 2005, APE (image + .cue), lossless

Ответить на тему
Статистика раздачи
   
 
Автор Сообщение

СЕРГУЛЕТ

Стаж: 11 лет

Сообщений: 2637

Откуда: LA ROMANA

Dominicanrep

post 18-Ноя-2009 01:15

[Цитировать] 

"Богородице, упование наше...". Песнопения в честь Пресвятой Богородицы.

pic
Страна: Греция.
Жанр: Церковная музыка и церковные хоры (lossless).
Год выпуска: 2005
Формат: APE (image + .cue)
Битрейт аудио: lossless
Продолжительность: 01:18:47

Поёт хор женского киновиального монастыря Благовещения Пресвятой Богородицы Ормилия ( Греция ).
Содержание
pic
EAC log
Exact Audio Copy V0.99 prebeta 5 from 4. May 2009

Отчёт EAC об извлечении, выполненном 11. марта 2010, 11:21

- / Песнопения в честь Пресвятой Богородицы

Дисковод: ASUS DRW-2014L1T Adapter: 0 ID: 1

Режим чтения : Достоверность
Использование точного потока : Да
Отключение кэша аудио : Да
Использование указателей C2 : Нет

Коррекция смещения при чтении : 6
Способность читать области Lead-in и Lead-out : Нет
Заполнение пропущенных сэмплов тишиной : Да
Удаление блоков с тишиной в начале и конце : Нет
При вычислениях CRC использовались нулевые сэмплы : Да
Интерфейс : Встроенный Win32-интерфейс для Win NT/2000

Выходной формат : Внутренние WAV-операции
Формат сэмплов : 44.100 Гц; 16 бит; стерео

TOC извлечённого CD

Трек | Старт | Длительность | Начальный сектор | Конечный сектор
---------------------------------------------------------------------
1 | 0:00.00 | 3:07.10 | 0 | 14034
2 | 3:07.10 | 7:20.74 | 14035 | 47108
3 | 10:28.09 | 2:56.29 | 47109 | 60337
4 | 13:24.38 | 6:27.26 | 60338 | 89388
5 | 19:51.64 | 5:42.51 | 89389 | 115089
6 | 25:34.40 | 5:46.64 | 115090 | 141103
7 | 31:21.29 | 2:55.59 | 141104 | 154287
8 | 34:17.13 | 7:01.19 | 154288 | 185881
9 | 41:18.32 | 9:44.22 | 185882 | 229703
10 | 51:02.54 | 6:58.53 | 229704 | 261106
11 | 58:01.32 | 5:32.54 | 261107 | 286060
12 | 63:34.11 | 3:07.24 | 286061 | 300109
13 | 66:41.35 | 9:27.30 | 300110 | 342664
14 | 76:08.65 | 2:36.68 | 342665 | 354432

Характеристики диапазона извлечения и сообщения об ошибках

Выбранный диапазон

Имя файла C:\Песнопения в честь Пресвятой Богородицы.wav

Пиковый уровень 97.7 %
Качество диапазона 99.9 %
CRC копии 3EBF8519
Копирование... OK

Ошибок не произошло

Конец отчёта
Download

Войдите на сайт, чтобы увидеть полную информацию.

Как скачивать  ·   Правила трекера



Последний раз редактировалось: СЕРГУЛЕТ (2010-03-11 12:29), всего редактировалось 1 раз
[Профиль]  [ЛС] 

mudjekeewis

post 11-Мар-2010 08:40 (спустя 3 месяца 23 дня)

[Цитировать] 

Спасибо, СЕРГУЛЕТ.

Скажите, пожалуйста, а нет ли у вас возможности переделать APE-файл? Дело в том, что при проигрывании и конвертации в нём возникает ошибка в двух местах:

2 out of 14 tracks converted with major problems.

Source: "C:\Users\Артём\Desktop\Песнопения в честь Пресвятой Богородицы.cue" / index: 5
Error decoding source file at 2:31.208 : Unsupported format or corrupted file
Source: "C:\Users\Артём\Desktop\Песнопения в честь Пресвятой Богородицы.cue" / index: 7
Error decoding source file at 1:58.491 : Unsupported format or corrupted file
 

СЕРГУЛЕТ

Стаж: 11 лет

Сообщений: 2637

Откуда: LA ROMANA

Dominicanrep

post 11-Мар-2010 12:30 (спустя 3 часа)

[Цитировать] 

mudjekeewis
Переделал. Пробуйте.
[Профиль]  [ЛС] 

mudjekeewis

post 13-Мар-2010 14:04 (спустя 2 дня 1 час)

[Цитировать] 

большое спасибо - теперь всё нормально.

а за обложками/буклетом от этого диска тоже к вам?
 

СЕРГУЛЕТ

Стаж: 11 лет

Сообщений: 2637

Откуда: LA ROMANA

Dominicanrep

post 14-Мар-2010 01:56 (спустя 11 часов)

[Цитировать] 

mudjekeewis
Да, наверное ко мне... Все диски Ормилии подарочные, обложки очень плохо сканируются. Все что мог выложил. ac
[Профиль]  [ЛС] 

Sirozhmanin

Стаж: 10 лет

Сообщений: 17

post 15-Мар-2010 00:49 (спустя 22 часа)

[Цитировать] 

Спасибо!
[Профиль]  [ЛС] 

mudjekeewis

post 17-Мар-2010 23:56 (спустя 2 дня 23 часа)

[Цитировать] 

СЕРГУЛЕТ писал(а):

mudjekeewis
Да, наверное ко мне... Все диски Ормилии подарочные, обложки очень плохо сканируются. Все что мог выложил. ac
Этого вполне достаточно - снова большое спасибо.
 

Pent

Стаж: 9 лет 10 месяцев

Сообщений: 27

Откуда: Ростов

Russia

post 18-Окт-2010 18:50 (спустя 7 месяцев)

[Цитировать] 

Спасибо Smile

_________________
Если вы будете любить любящих вас, какая вам награда?" (Мф. 5:44-46)
[Профиль]  [ЛС] 

valina

Стаж: 10 лет

Сообщений: 97

post 01-Сен-2011 14:53 (спустя 10 месяцев)

[Цитировать] 

спасибо.
[Профиль]  [ЛС] 

vika010288

Стаж: 11 лет

Сообщений: 456

Georgia

post 01-Сен-2011 16:24 (спустя 1 час 30 минут)

[Цитировать] 

Нескончаемые благодарности!
[Профиль]  [ЛС] 
Показать сообщения:    
Ответить на тему

Текущее время: 13-Авг 14:39

Часовой пояс: GMT + 4



Вы не можете начинать темы
Вы не можете отвечать на сообщения
Вы не можете редактировать свои сообщения
Вы не можете удалять свои сообщения
Вы не можете голосовать в опросах
Вы не можете прикреплять файлы к сообщениям
Вы не можете скачивать файлы