Loading...
Error

(Церковная музыка и церковные хоры (lossless).) "Песнопения на праздник Благовещения". 2CD. - 2006, APE (image + .cue), lossless

Ответить на тему
Статистика раздачи
   
 
Автор Сообщение

СЕРГУЛЕТ

Стаж: 11 лет

Сообщений: 2637

Откуда: LA ROMANA

Dominicanrep

post 18-Ноя-2009 00:59

[Цитировать] 

"Песнопения на праздник Благовещения". 2CD.

pic
Страна: Греция.
Жанр: Церковная музыка и церковные хоры (lossless).
Год выпуска: 2006
Формат: APE (image + .cue)
Битрейт аудио: lossless
Продолжительность: 00:50:41+01:09:06

Поёт хор женского киновиального монастыря Благовещения Пресвятой Богородицы Ормилия ( Греция ).
Содержание
pic
EAC log
]
Exact Audio Copy V0.99 prebeta 5 from 4. May 2009

Отчёт EAC об извлечении, выполненном 17. ноября 2009, 22:33

Holy Convent of the Annunciation, Ormylia / Annunciation (Disc 1)

Дисковод: ASUS BC-1205PT Adapter: 1 ID: 0

Режим чтения : Достоверность
Использование точного потока : Да
Отключение кэша аудио : Да
Использование указателей C2 : Нет

Коррекция смещения при чтении : 667
Способность читать области Lead-in и Lead-out : Нет
Заполнение пропущенных сэмплов тишиной : Да
Удаление блоков с тишиной в начале и конце : Нет
При вычислениях CRC использовались нулевые сэмплы : Да
Интерфейс : Встроенный Win32-интерфейс для Win NT/2000

Выходной формат : Внутренние WAV-операции
Формат сэмплов : 44.100 Гц; 16 бит; стерео

TOC извлечённого CD

Трек | Старт | Длительность | Начальный сектор | Конечный сектор
---------------------------------------------------------------------
1 | 0:00.00 | 5:01.57 | 0 | 22631
2 | 5:01.57 | 2:50.01 | 22632 | 35382
3 | 7:51.58 | 3:35.46 | 35383 | 51553
4 | 11:27.29 | 1:59.11 | 51554 | 60489
5 | 13:26.40 | 6:21.02 | 60490 | 89066
6 | 19:47.42 | 6:21.08 | 89067 | 117649
7 | 26:08.50 | 7:51.71 | 117650 | 153045
8 | 34:00.46 | 1:25.28 | 153046 | 159448
9 | 35:25.74 | 2:25.27 | 159449 | 170350
10 | 37:51.26 | 12:47.53 | 170351 | 227928

Характеристики диапазона извлечения и сообщения об ошибках

Выбранный диапазон

Имя файла C:\Holy Convent of the Annunciation, Ormylia - Annunciation (Disc 1).wav

Пиковый уровень 97.7 %
Качество диапазона 99.9 %
CRC копии 7AE0DEC9
Копирование... OK

Ошибок не произошло

CD2.
Exact Audio Copy V0.99 prebeta 5 from 4. May 2009

Отчёт EAC об извлечении, выполненном 17. ноября 2009, 22:48

Ormylia Nuns / Evaggelismos (Annunciation)-2

Дисковод: ASUS BC-1205PT Adapter: 1 ID: 0

Режим чтения : Достоверность
Использование точного потока : Да
Отключение кэша аудио : Да
Использование указателей C2 : Нет

Коррекция смещения при чтении : 667
Способность читать области Lead-in и Lead-out : Нет
Заполнение пропущенных сэмплов тишиной : Да
Удаление блоков с тишиной в начале и конце : Нет
При вычислениях CRC использовались нулевые сэмплы : Да
Интерфейс : Встроенный Win32-интерфейс для Win NT/2000

Выходной формат : Внутренние WAV-операции
Формат сэмплов : 44.100 Гц; 16 бит; стерео

TOC извлечённого CD

Трек | Старт | Длительность | Начальный сектор | Конечный сектор
---------------------------------------------------------------------
1 | 0:00.00 | 5:36.32 | 0 | 25231
2 | 5:36.32 | 7:43.68 | 25232 | 60024
3 | 13:20.25 | 3:19.17 | 60025 | 74966
4 | 16:39.42 | 2:21.51 | 74967 | 85592
5 | 19:01.18 | 3:31.54 | 85593 | 101471
6 | 22:32.72 | 2:48.27 | 101472 | 114098
7 | 25:21.24 | 8:10.00 | 114099 | 150848
8 | 33:31.24 | 3:15.20 | 150849 | 165493
9 | 36:46.44 | 5:05.54 | 165494 | 188422
10 | 41:52.23 | 4:01.63 | 188423 | 206560
11 | 45:54.11 | 7:30.09 | 206561 | 240319
12 | 53:24.20 | 14:20.71 | 240320 | 304890
13 | 67:45.16 | 1:18.60 | 304891 | 310800

Характеристики диапазона извлечения и сообщения об ошибках

Выбранный диапазон

Имя файла C:\Ormylia Nuns - Evaggelismos (Annunciation)-2.wav

Пиковый уровень 97.7 %
Качество диапазона 100.0 %
CRC копии 88FA6C2B
Копирование... OK

Ошибок не произошло
Download

Войдите на сайт, чтобы увидеть полную информацию.

Как скачивать  ·   Правила трекера

[Профиль]  [ЛС] 

etrusk

Стаж: 9 лет

Сообщений: 128

Russia

post 06-Ноя-2010 00:13 (спустя 11 месяцев)

[Цитировать] 

А нельзя ли обновить обложку с названиями треков?
[Профиль]  [ЛС] 

poluno4-nik

Стаж: 9 лет 7 месяцев

Сообщений: 12

post 11-Дек-2010 18:23 (спустя 1 месяц 5 дней)

[Цитировать] 

Спасибо!
ps
и если можно добавить "Ормилия (Ormylia)" в названии - искать легче будет
[Профиль]  [ЛС] 
Показать сообщения:    
Ответить на тему

Текущее время: 05-Авг 02:47

Часовой пояс: GMT + 4



Вы не можете начинать темы
Вы не можете отвечать на сообщения
Вы не можете редактировать свои сообщения
Вы не можете удалять свои сообщения
Вы не можете голосовать в опросах
Вы не можете прикреплять файлы к сообщениям
Вы не можете скачивать файлы