Loading...
Error

(Церковная музыка и церковные хоры (lossless)) Сузе с Метоха - Владислав Д. Лукович (Сербия) - 2004, APE (image + .cue), lossless

Ответить на тему
Статистика раздачи
   
 
Автор Сообщение

СЕРГУЛЕТ

Стаж: 12 лет

Сообщений: 2637

Откуда: LA ROMANA

Dominicanrep

post 04-Ноя-2009 21:58

[Цитировать] 

Сузе с Метоха - Владислав Д. Лукович (Сербия)
pic
Страна: Сербия. Студия L&V
Жанр: Церковная музыка Греции, Афона и Сербии (lossless)
Год выпуска: 2004
Формат: APE (image + .cue)
Битрейт аудио: lossless
Продолжительность: 00:48:08
Наличие сканов: да
Трэклист:
01. Возбраној, глас 8 - 1:32
02. Стихире на Богојављање, Глас Господен на водах, глас 8 - 1:17
03. Днес водах - 1:04
04. Јако человјек - 0:57
05. Слава и ниње, Ко гласу вопијушчаго, глас 8 - 2:52
06. Достојно јест, глас 1 - 2:02
07. Тропар св. мученицима, глас 8 - 1:13
08. Слава и ниње мученицима, глас 8 - 1:04
09. Канон св. мученицима, песма прва rлac 8 - 1:51
10. Песма трећа глас 8 - 2:04
11. Мала јектемија - 1:20
12. Канон св. мученицима песма четврта глас 8 - 1:47
13. Песма пета глас 8 - 1:42
14. Песма шеста глас 8 - 2:03
15. Мала јектенија - 1:20
16. Кондак светим мученицима глас 8 - 1:01
17. Песма седма глас 8 - 1:49
18. Песма осма глас 8 - 1:53
19. Песма девета глас 8 - 2:09
20. Благослови душе моја Господа, пс. 102 - 5:31
21. Тропар св. Николају Жичком и Охридском глас 8 - 1:12
22. Кондак св. Николају Жичком и Охридском глас 3 - 1:40
23. Слава и ниње св. Николају Мирликијском глас 3 - 1:55
24. Стихира св. Николају Жичком и Охридскoм глас 8 - 3:35
25. Слава и ниње св. Николају Жичком и Охридском глас 8 - 3:27

EAC log
Exact Audio Copy V0.99 prebeta 5 from 4. May 2009

Отчёт EAC об извлечении, выполненном 4. ноября 2009, 14:25

- / Сузе с Метоха

Дисковод: ASUS BC-1205PT Adapter: 1 ID: 0

Режим чтения : Достоверность
Использование точного потока : Да
Отключение кэша аудио : Да
Использование указателей C2 : Нет

Коррекция смещения при чтении : 667
Способность читать области Lead-in и Lead-out : Нет
Заполнение пропущенных сэмплов тишиной : Да
Удаление блоков с тишиной в начале и конце : Нет
При вычислениях CRC использовались нулевые сэмплы : Да
Интерфейс : Встроенный Win32-интерфейс для Win NT/2000

Выходной формат : Внутренние WAV-операции
Формат сэмплов : 44.100 Гц; 16 бит; стерео

TOC извлечённого CD

Трек | Старт | Длительность | Начальный сектор | Конечный сектор
---------------------------------------------------------------------
1 | 0:00.00 | 1:31.40 | 0 | 6864
2 | 1:31.40 | 1:16.32 | 6865 | 12596
3 | 2:47.72 | 1:03.43 | 12597 | 17364
4 | 3:51.40 | 0:56.49 | 17365 | 21613
5 | 4:48.14 | 2:51.26 | 21614 | 34464
6 | 7:39.40 | 2:02.00 | 34465 | 43614
7 | 9:41.40 | 1:12.18 | 43615 | 49032
8 | 10:53.58 | 1:03.43 | 49033 | 53800
9 | 11:57.26 | 1:50.10 | 53801 | 62060
10 | 13:47.36 | 2:03.17 | 62061 | 71302
11 | 15:50.53 | 1:19.34 | 71303 | 77261
12 | 17:10.12 | 1:46.23 | 77262 | 85234
13 | 18:56.35 | 1:41.14 | 85235 | 92823
14 | 20:37.49 | 2:02.71 | 92824 | 102044
15 | 22:40.45 | 1:19.34 | 102045 | 108003
16 | 24:00.04 | 1:00.59 | 108004 | 112562
17 | 25:00.63 | 1:48.60 | 112563 | 120722
18 | 26:49.48 | 1:52.39 | 120723 | 129161
19 | 28:42.12 | 2:08.70 | 129162 | 138831
20 | 30:51.07 | 5:30.63 | 138832 | 163644
21 | 36:21.70 | 1:11.21 | 163645 | 168990
22 | 37:33.16 | 1:39.22 | 168991 | 176437
23 | 39:12.38 | 1:54.14 | 176438 | 185001
24 | 41:06.52 | 3:34.67 | 185002 | 201118
25 | 44:41.44 | 3:26.14 | 201119 | 216582

Характеристики диапазона извлечения и сообщения об ошибках

Выбранный диапазон

Имя файла C:\Сузе с Метоха.wav

Пиковый уровень 100.0 %
Качество диапазона 100.0 %
CRC копии 67C8A849
Копирование... OK

Ошибок не произошло

Обложки и содержание
pic pic

Сузе с Метоха - Владислав Д. Лукович (Сербия) - 2004, MP3, 320 kbps
Download

Войдите на сайт, чтобы увидеть полную информацию.

Как скачивать  ·   Правила трекера

[Профиль]  [ЛС] 
Показать сообщения:    
Ответить на тему

Текущее время: 19-Апр 13:39

Часовой пояс: GMT + 4



Вы не можете начинать темы
Вы не можете отвечать на сообщения
Вы не можете редактировать свои сообщения
Вы не можете удалять свои сообщения
Вы не можете голосовать в опросах
Вы не можете прикреплять файлы к сообщениям
Вы не можете скачивать файлы