Loading...
Error

(Колокольные звоны.) "Колокольные Звоны древних колоколов Валаамского монастыря". Алексей Уткин. - 2009, APE (image + .cue), lossless

Ответить на тему
Статистика раздачи
Скачали: [ 16 ]
   
 
Автор Сообщение

СЕРГУЛЕТ

Стаж: 8 лет 4 месяца

Сообщений: 2640

Откуда: LA ROMANA

Dominicanrep

post 23-Окт-2009 17:08

[Цитировать] 

"Колокольные Звоны древних колоколов Валаамского монастыря". Алексей Уткин.

pic
Страна: Россия. ООО"Маркон".
Жанр: Колокольные звоны.
Год выпуска: 2009
Формат: APE (image + .cue)
Битрейт аудио: lossless
Продолжительность: 01:04:31
Обложки+Содержание
picpicpic
EAC log
Exact Audio Copy V0.99 prebeta 5 from 4. May 2009

Отчёт EAC об извлечении, выполненном 23. октября 2009, 17:05

Алексей Уткин. / Звоны Валаамского монастыря

Дисковод: ASUS BC-1205PT Adapter: 1 ID: 0

Режим чтения : Достоверность
Использование точного потока : Да
Отключение кэша аудио : Да
Использование указателей C2 : Нет

Коррекция смещения при чтении : 667
Способность читать области Lead-in и Lead-out : Нет
Заполнение пропущенных сэмплов тишиной : Да
Удаление блоков с тишиной в начале и конце : Нет
При вычислениях CRC использовались нулевые сэмплы : Да
Интерфейс : Встроенный Win32-интерфейс для Win NT/2000

Выходной формат : Внутренние WAV-операции
Формат сэмплов : 44.100 Гц; 16 бит; стерео

TOC извлечённого CD

Трек | Старт | Длительность | Начальный сектор | Конечный сектор
---------------------------------------------------------------------
1 | 0:00.00 | 9:07.41 | 0 | 41065
2 | 9:07.41 | 8:27.36 | 41066 | 79126
3 | 17:35.02 | 1:05.65 | 79127 | 84066
4 | 18:40.67 | 1:01.07 | 84067 | 88648
5 | 19:41.74 | 3:11.36 | 88649 | 103009
6 | 22:53.35 | 5:30.48 | 103010 | 127807
7 | 28:24.08 | 2:57.27 | 127808 | 141109
8 | 31:21.35 | 2:08.50 | 141110 | 150759
9 | 33:30.10 | 1:33.60 | 150760 | 157794
10 | 35:03.70 | 6:13.00 | 157795 | 185769
11 | 41:16.70 | 5:52.67 | 185770 | 212236
12 | 47:09.62 | 6:40.09 | 212237 | 242245
13 | 53:49.71 | 6:28.42 | 242246 | 271387
14 | 60:18.38 | 4:11.20 | 271388 | 290232

Характеристики диапазона извлечения и сообщения об ошибках

Выбранный диапазон

Имя файла C:\Алексей Уткин. - Звоны Валаамского монастыря.wav

Пиковый уровень 74.7 %
Качество диапазона 100.0 %
CRC копии EF567292
Копирование... OK

Ошибок не произошло
Конец отчёта
Download

Войдите для скачивания торрент-файла

Как скачивать  ·   Правила трекера



Последний раз редактировалось: СЕРГУЛЕТ (2010-11-20 12:44), всего редактировалось 1 раз
[Профиль]  [ЛС] 

Zinaida111

post 21-Окт-2010 18:37 (спустя 11 месяцев)

[Цитировать] 

Спаси вас Господи!
 

+Сергей+

Стаж: 6 лет 6 месяцев

Сообщений: 225

Откуда: Москва

Russia

post 04-Дек-2010 19:37 (спустя 1 месяц 14 дней)

[Цитировать] 

Благодарствую.
[Профиль]  [ЛС] 

BAV-60

Стаж: 4 года 8 месяцев

Сообщений: 1

Russia

post 14-Окт-2012 17:24 (спустя 1 год 10 месяцев)

[Цитировать] 

СПАСИБО.
[Профиль]  [ЛС] 

Webioss

Стаж: 3 года 6 месяцев

Сообщений: 4

Russia

post 08-Мар-2016 14:43 (спустя 3 года 4 месяца)

[Цитировать] 

Встаньте на раздачу, пжл
Спаси Бог!
[Профиль]  [ЛС] 
Показать сообщения:    
Ответить на тему

Текущее время: 28-Июн 00:51

Часовой пояс: GMT + 4



Вы не можете начинать темы
Вы не можете отвечать на сообщения
Вы не можете редактировать свои сообщения
Вы не можете удалять свои сообщения
Вы не можете голосовать в опросах
Вы не можете прикреплять файлы к сообщениям
Вы не можете скачивать файлы