Loading...
Error

(Церковная музыка и церковные хоры (lossless)) Молебный канон иконе Божией Матери "Всецарица". Поет братский хор Ватопедского монастыря. Творение старца Иосифа Ватопедского. 2007, APE (image + .cue), lossless

Ответить на тему
Статистика раздачи
   
 
Автор Сообщение

СЕРГУЛЕТ

Стаж: 8 лет 8 месяцев

Сообщений: 2640

Откуда: LA ROMANA

Dominicanrep

post 20-Окт-2009 09:27

[Цитировать] 

Молебный канон иконе Божией Матери "Всецарица". Поет братский хор Ватопедского монастыря. Творение старца Иосифа Ватопедского.

pic
Страна: Греция. Афон. Монастырь Ватопед.
Жанр: Церковная музыка и церковные хоры (lossless)
Год выпуска: 2007
Формат: APE (image + .cue)
Битрейт аудио: lossless
Продолжительность: 01:16:17
Обложки+Содержание
picpicpic
EAC log
Exact Audio Copy V0.99 prebeta 5 from 4. May 2009

Отчёт EAC об извлечении, выполненном 19. октября 2009, 13:08

Хор монастыря Ватопед / Акафист Всецарице

Дисковод: ASUS BC-1205PT Adapter: 1 ID: 0

Режим чтения : Достоверность
Использование точного потока : Да
Отключение кэша аудио : Да
Использование указателей C2 : Нет

Коррекция смещения при чтении : 667
Способность читать области Lead-in и Lead-out : Нет
Заполнение пропущенных сэмплов тишиной : Да
Удаление блоков с тишиной в начале и конце : Нет
При вычислениях CRC использовались нулевые сэмплы : Да
Интерфейс : Встроенный Win32-интерфейс для Win NT/2000

Выходной формат : Внутренние WAV-операции
Формат сэмплов : 44.100 Гц; 16 бит; стерео

TOC извлечённого CD

Трек | Старт | Длительность | Начальный сектор | Конечный сектор
---------------------------------------------------------------------
1 | 0:00.00 | 0:15.62 | 0 | 1186
2 | 0:15.62 | 1:37.35 | 1187 | 8496
3 | 1:53.22 | 2:50.00 | 8497 | 21246
4 | 4:43.22 | 2:15.33 | 21247 | 31404
5 | 6:58.55 | 3:40.72 | 31405 | 47976
6 | 10:39.52 | 2:21.15 | 47977 | 58566
7 | 13:00.67 | 0:24.45 | 58567 | 60411
8 | 13:25.37 | 4:54.18 | 60412 | 82479
9 | 18:19.55 | 2:14.10 | 82480 | 92539
10 | 20:33.65 | 0:35.27 | 92540 | 95191
11 | 21:09.17 | 1:35.33 | 95192 | 102349
12 | 22:44.50 | 2:41.60 | 102350 | 114484
13 | 25:26.35 | 0:16.67 | 114485 | 115751
14 | 25:43.27 | 0:18.43 | 115752 | 117144
15 | 26:01.70 | 1:08.05 | 117145 | 122249
16 | 27:10.00 | 2:39.40 | 122250 | 134214
17 | 29:49.40 | 1:01.10 | 134215 | 138799
18 | 30:50.50 | 4:50.25 | 138800 | 160574
19 | 35:41.00 | 3:32.45 | 160575 | 176519
20 | 39:13.45 | 1:20.57 | 176520 | 182576
21 | 40:34.27 | 0:35.70 | 182577 | 185271
22 | 41:10.22 | 2:10.18 | 185272 | 195039
23 | 43:20.40 | 0:54.37 | 195040 | 199126
24 | 44:15.02 | 2:13.60 | 199127 | 209161
25 | 46:28.62 | 19:55.03 | 209162 | 298789
26 | 66:23.65 | 5:00.12 | 298790 | 321301
27 | 71:24.02 | 4:51.45 | 321302 | 343171

Характеристики диапазона извлечения и сообщения об ошибках

Выбранный диапазон

Имя файла C:\Хор монастыря Ватопед - Акафист Всецарице.wav

Пиковый уровень 92.9 %
Качество диапазона 100.0 %
CRC копии B8609A5B
Копирование... OK

Ошибок не произошло
Конец отчёта
Download

Войдите на сайт, чтобы увидеть полную информацию.

Как скачивать  ·   Правила трекера

[Профиль]  [ЛС] 

Cectra

Стаж: 8 лет 6 месяцев

Сообщений: 26

Russia

post 09-Ноя-2012 15:45 (спустя 3 года)

[Цитировать] 

Cпаси Вас Господи!
[Профиль]  [ЛС] 

dr.marko-polo

Стаж: 4 года 10 месяцев

Сообщений: 8

Russia

post 20-Май-2017 12:44 (спустя 4 года 6 месяцев)

[Цитировать] 

Спасибо! Великолепное исполнение.
[Профиль]  [ЛС] 
Показать сообщения:    
Ответить на тему

Текущее время: 23-Окт 22:55

Часовой пояс: GMT + 4



Вы не можете начинать темы
Вы не можете отвечать на сообщения
Вы не можете редактировать свои сообщения
Вы не можете удалять свои сообщения
Вы не можете голосовать в опросах
Вы не можете прикреплять файлы к сообщениям
Вы не можете скачивать файлы