Loading...
Error

(Церковная музыка и церковные хоры (lossless).) "Вселенская Родительская Суббота. Парастас". Иеродиакон Герман (Рябцев). (2CD). - 2005, APE (image + .cue), lossless

Ответить на тему
Статистика раздачи
   
 
Автор Сообщение

СЕРГУЛЕТ

Стаж: 11 лет

Сообщений: 2637

Откуда: LA ROMANA

Dominicanrep

post 18-Окт-2009 08:03

[Цитировать] 

"Вселенская Родительская Суббота. Парастас". Иеродиакон Герман (Рябцев). (2CD).

pic
Страна: Россия. Продюсерский центр Игоря Матвиенко.
Жанр: Церковная музыка и церковные хоры (lossless).
Год выпуска: 2005
Формат: APE (image + .cue)
Битрейт аудио: lossless
Продолжительность: 00:42:34+00:45:56
Трэклист:
ДИСК I

1. Аллилуия глас 8**
2. Тропарь «Глубиною мудрости…»
Богородичен «Тебе и стену и прибежище…» глас 8**
3. Непорочны — статия 1***
4. Заупокойная ектения**/******
5. Непорочны — статия 2***
6. Тропари глас 5:
«Святых лик…»
«Агнца Божия проповедавшее…»
«В путь узкий хождшии прискорбный…»
«Образ есмь неизреченныя Твоея славы…»
«Древле убо от не сущих создавый мя…»
«Упокой, Боже, рабы Твоя…»
Троичен «Трисиятельное Единаго Божества…»
Богородичен «Радуйся, Чистая…»
7. Заупокойная ектения**/******
8. Седален «Покой, Спасе наш…» глас 5
Богородичен «От Девы возсиявый миру…»
Канон Триоди глас 8*/**
9. Песнь 1

ДИСК II

1. Песнь 3
2. Малая ектения***
3. Седален «Нас ради претерпевый смерть и крест…»
4. Песнь 6
5. Заупокойная ектения**/******
6. Кондак «Со святыми упокой…» глас 8** икос «Сам един еси безсмертный…»
7. Песнь 9
8. Малая ектения***
9. «Всякое дыхание…» глас 8***
10. Стихира на хвалитех «Приидите прежде конца вси, братие…» глас 8****
11. Слава… глас 2****
12. И ныне… Богородичен «Радуйся, Марие Богородице…» глас 2**
13. Ектения «Исполним утреннюю молитву…»*
14. Слава… Стихира на стиховне «Болезнь Адаму бысть…» глас 6*****
15. И ныне… Богородичен «Ты еси Бог наш…» глас 6*****

* знаменный распев
** знаменный распев с исоном
*** валаамский распев
**** малый знаменный распев
***** обиходный распев
****** греческий распев
EAC log
Exact Audio Copy V0.99 prebeta 5 from 4. May 2009

Отчёт EAC об извлечении, выполненном 17. октября 2009, 23:23

Иеродиакон Герман / Парастас-1

Дисковод: ASUS BC-1205PT Adapter: 1 ID: 0

Режим чтения : Достоверность
Использование точного потока : Да
Отключение кэша аудио : Да
Использование указателей C2 : Нет

Коррекция смещения при чтении : 667
Способность читать области Lead-in и Lead-out : Нет
Заполнение пропущенных сэмплов тишиной : Да
Удаление блоков с тишиной в начале и конце : Нет
При вычислениях CRC использовались нулевые сэмплы : Да
Интерфейс : Встроенный Win32-интерфейс для Win NT/2000

Выходной формат : Внутренние WAV-операции
Формат сэмплов : 44.100 Гц; 16 бит; стерео

TOC извлечённого CD

Трек | Старт | Длительность | Начальный сектор | Конечный сектор
---------------------------------------------------------------------
1 | 0:00.00 | 1:14.69 | 0 | 5618
2 | 1:14.69 | 3:30.28 | 5619 | 21396
3 | 4:45.22 | 9:47.63 | 21397 | 65484
4 | 14:33.10 | 3:28.60 | 65485 | 81144
5 | 18:01.70 | 8:58.49 | 81145 | 121543
6 | 27:00.44 | 6:35.20 | 121544 | 151188
7 | 33:35.64 | 3:28.56 | 151189 | 166844
8 | 37:04.45 | 3:16.57 | 166845 | 181601
9 | 40:21.27 | 5:32.48 | 181602 | 206549

Характеристики диапазона извлечения и сообщения об ошибках

Выбранный диапазон

Имя файла C:\Иеродиакон Герман - Парастас-1.wav

Пиковый уровень 100.0 %
Качество диапазона 100.0 %
CRC копии 640BD5AF
Копирование... OK

Ошибок не произошло

CD2.
Exact Audio Copy V0.99 prebeta 5 from 4. May 2009

Отчёт EAC об извлечении, выполненном 17. октября 2009, 23:42

Иеродиакон Герман / Парастас-2

Дисковод: ASUS BC-1205PT Adapter: 1 ID: 0

Режим чтения : Достоверность
Использование точного потока : Да
Отключение кэша аудио : Да
Использование указателей C2 : Нет

Коррекция смещения при чтении : 667
Способность читать области Lead-in и Lead-out : Нет
Заполнение пропущенных сэмплов тишиной : Да
Удаление блоков с тишиной в начале и конце : Нет
При вычислениях CRC использовались нулевые сэмплы : Да
Интерфейс : Встроенный Win32-интерфейс для Win NT/2000

Выходной формат : Внутренние WAV-операции
Формат сэмплов : 44.100 Гц; 16 бит; стерео

TOC извлечённого CD

Трек | Старт | Длительность | Начальный сектор | Конечный сектор
---------------------------------------------------------------------
1 | 0:00.00 | 3:54.44 | 0 | 17593
2 | 3:54.44 | 1:20.38 | 17594 | 23631
3 | 5:15.07 | 1:12.16 | 23632 | 29047
4 | 6:27.23 | 4:21.02 | 29048 | 48624
5 | 10:48.25 | 3:29.35 | 48625 | 64334
6 | 14:17.60 | 4:13.53 | 64335 | 83362
7 | 18:31.38 | 5:01.17 | 83363 | 105954
8 | 23:32.55 | 1:27.05 | 105955 | 112484
9 | 24:59.60 | 3:29.65 | 112485 | 128224
10 | 28:29.50 | 2:35.06 | 128225 | 139855
11 | 31:04.56 | 1:52.11 | 139856 | 148266
12 | 32:56.67 | 1:22.27 | 148267 | 154443
13 | 34:19.19 | 4:11.65 | 154444 | 173333
14 | 38:31.09 | 1:40.59 | 173334 | 180892
15 | 40:11.68 | 2:20.63 | 180893 | 191455

Характеристики диапазона извлечения и сообщения об ошибках

Выбранный диапазон

Имя файла C:\Иеродиакон Герман - Парастас-2.wav

Пиковый уровень 99.0 %
Качество диапазона 100.0 %
CRC копии F79C1CC6
Копирование... OK

Ошибок не произошло
Конец отчёта
Download

Войдите на сайт, чтобы увидеть полную информацию.

Как скачивать  ·   Правила трекера

[Профиль]  [ЛС] 

jaromar

Стаж: 11 лет

Сообщений: 21

Откуда: Краснодар.

Russia

post 06-Янв-2010 01:50 (спустя 2 месяца 18 дней)

[Цитировать] 

Спасибо за такой трекер.
Дай Бог Всем Здоровья!!!
[Профиль]  [ЛС] 

Valent

Стаж: 11 лет

Сообщений: 8

Ukraine

post 10-Мар-2010 13:57 (спустя 2 месяца 4 дня)

[Цитировать] 

jaromar писал(а):

Спасибо за такой трекер.
Дай Бог Всем Здоровья!!!
Присоединяюсь...
[Профиль]  [ЛС] 

Владимир Лухов

Стаж: 10 лет

Сообщений: 110

Откуда: Саратов

Russia

post 16-Мар-2011 20:40 (спустя 1 год)

[Цитировать] 

Спасибо

_________________
С уважением. Владимир.
[Профиль]  [ЛС] 

Странник1

Стаж: 11 лет

Сообщений: 2307

Russia

post 24-Сен-2011 15:23 (спустя 6 месяцев)

[Цитировать] 

Спасибо
[Профиль]  [ЛС] 

шульц54

Стаж: 7 лет 8 месяцев

Сообщений: 6

Russia

post 04-Май-2013 22:53 (спустя 1 год 7 месяцев)

[Цитировать] 

Спаси Бог.
[Профиль]  [ЛС] 

4x4Runner

Стаж: 7 лет 10 месяцев

Сообщений: 15

post 03-Мар-2014 12:26 (спустя 9 месяцев)

[Цитировать] 

Большое спасибо за раздачу...Храни Вас Господь
[Профиль]  [ЛС] 

serpantin04

Стаж: 9 лет 2 месяца

Сообщений: 84

Belarus

post 15-Июн-2014 13:16 (спустя 3 месяца 12 дней)

[Цитировать] 

Труд на пользу. Спасибо.
[Профиль]  [ЛС] 

0304mel

Стаж: 7 лет 7 месяцев

Сообщений: 111

Russia

post 20-Окт-2014 20:23 (спустя 4 месяца 5 дней)

[Цитировать] 

Сергулет, и вновь спасибо!
[Профиль]  [ЛС] 

uk9cbd

Стаж: 6 лет 10 месяцев

Сообщений: 141

Russia

post 09-Окт-2020 15:37 (спустя 5 лет 11 месяцев)

[Цитировать] 

Спасибо большое, Сергулет!

_________________
Мир всем...
[Профиль]  [ЛС] 

zoranzivojinovic

Стаж: 2 года 7 месяцев

Сообщений: 63

Australia

post 27-Ноя-2020 05:11 (спустя 1 месяц 17 дней)

[Цитировать] 

Спасибо за такой трекер.
Дай Бог Всем Здоровья +++
[Профиль]  [ЛС] 
Показать сообщения:    
Ответить на тему

Текущее время: 21-Янв 12:28

Часовой пояс: GMT + 4



Вы не можете начинать темы
Вы не можете отвечать на сообщения
Вы не можете редактировать свои сообщения
Вы не можете удалять свои сообщения
Вы не можете голосовать в опросах
Вы не можете прикреплять файлы к сообщениям
Вы не можете скачивать файлы