Loading...
Error

Молебен с акафистом Пресвятой Богородице в честь явления чудотворныя иконы Ея Толгския - 2008, FLAC (image + .cue), lossless

Ответить на тему
Статистика раздачи
Скачали: [ 4 ]
   
 
Автор Сообщение

andrejpushkaryov

Модератор

Стаж: 8 лет 1 месяц

Сообщений: 1002

Откуда: Ижевск

Russia

post 17-Окт-2009 15:49

[Цитировать] 

Молебен с акафистом Пресвятой Богородице в честь явления чудотворныя иконы Ея Толгския

pic
Страна: Россия
Жанр: Акафист
Год выпуска: 2008
Формат: FLAC (image + .cue)
Битрейт аудио: lossless
Продолжительность: 75 минут

Трэклист:
Молебен с акафистом Пресвятой Богородице в честь явления чудотворныя иконы ея Толгския
Читает Архимандрит Пимен (Адарченко)
Поет Хор сестер Толгского монастыря
Толгский монастырь, 2008г
EAC log
Exact Audio Copy V0.99 prebeta 5 from 4. May 2009

Отчёт EAC об извлечении, выполненном 17. октября 2009, 14:37

Unknown Artist / Unknown Title

Дисковод: _NEC DVD_RW ND-4570A Adapter: 0 ID: 1

Режим чтения : Достоверность
Использование точного потока : Да
Отключение кэша аудио : Нет
Использование указателей C2 : Да

Комбинированное смещение чтения/записи : 0
Способность читать области Lead-in и Lead-out : Нет
Заполнение пропущенных сэмплов тишиной : Да
Удаление блоков с тишиной в начале и конце : Нет
При вычислениях CRC использовались нулевые сэмплы : Да
Интерфейс : Установленный внешний ASPI-интерфейс

Выходной формат : Внутренние WAV-операции
Формат сэмплов : 44.100 Гц; 16 бит; стерео

TOC извлечённого CD

Трек | Старт | Длительность | Начальный сектор | Конечный сектор
---------------------------------------------------------------------
1 | 0:00.00 | 5:13.68 | 0 | 23542
2 | 5:13.68 | 7:47.38 | 23543 | 58605
3 | 13:01.31 | 6:43.40 | 58606 | 88870
4 | 19:44.71 | 5:42.63 | 88871 | 114583
5 | 25:27.59 | 4:23.16 | 114584 | 134324
6 | 29:51.00 | 3:11.73 | 134325 | 148722
7 | 33:02.73 | 2:37.46 | 148723 | 160543
8 | 35:40.44 | 5:38.41 | 160544 | 185934
9 | 41:19.10 | 9:53.47 | 185935 | 230456
10 | 51:12.57 | 9:59.74 | 230457 | 275455
11 | 61:12.56 | 4:28.02 | 275456 | 295557
12 | 65:40.58 | 3:44.24 | 295558 | 312381
13 | 69:25.07 | 5:56.39 | 312382 | 339120

Характеристики диапазона извлечения и сообщения об ошибках

Выбранный диапазон

Имя файла F:\Молебен с Акафистом Пресвятой Богородице\Unknown Artist - Unknown Title.wav

Подозрительная позиция 0:32:15 - 0:32:50

Пиковый уровень 100.0 %
Качество диапазона 97.9 %
CRC копии F0C45947
Копирование завершено

Были ошибки

Конец отчёта
Обложка
pic
pic
Download

Войдите для скачивания торрент-файла

Как скачивать  ·   Правила трекера



Последний раз редактировалось: andrejpushkaryov (2014-02-22 11:38), всего редактировалось 1 раз
[Профиль]  [ЛС] 

Gervasiyi

post 20-Янв-2010 02:55 (спустя 3 месяца 2 дня)

[Цитировать] 

довелось мне пожить в этом монастыре в 2009г,там столько святынь,рака с ИГНАТЬЕВЫМ БРЯНЧАНИНОВЫМ ,ЧТО даже милиция с автоматоми охраняет,а ведь в м-ре недолжно быть оружия.
 

Владимир Лухов

Стаж: 6 лет 8 месяцев

Сообщений: 108

Откуда: Саратов

Russia

post 29-Мар-2011 15:53 (спустя 1 год 2 месяца)

[Цитировать] 

Спасибо!

_________________
С уважением. Владимир.
[Профиль]  [ЛС] 
Показать сообщения:    
Ответить на тему

Текущее время: 25-Май 01:37

Часовой пояс: GMT + 4



Вы не можете начинать темы
Вы не можете отвечать на сообщения
Вы не можете редактировать свои сообщения
Вы не можете удалять свои сообщения
Вы не можете голосовать в опросах
Вы не можете прикреплять файлы к сообщениям
Вы не можете скачивать файлы