Loading...
Error

(Церковная музыка и церковные хоры (lossless).) "Mегалн Деyтера". "Holy Monday". "Великий Понедельник". - 2008, APE (image + .cue), lossless

Ответить на тему
Статистика раздачи
no
   
 
Автор Сообщение

СЕРГУЛЕТ

Стаж: 8 лет 3 месяца

Сообщений: 2639

Откуда: LA ROMANA

Dominicanrep

post 11-Окт-2009 22:59

[Цитировать] 

"Mегалн Деyтера". "Holy Monday". "Великий Понедельник".

pic
Страна: Греция.
Жанр: Церковная музыка и церковные хоры (lossless).
Год выпуска: 2008
Формат: APE (image + .cue)
Битрейт аудио: lossless
Продолжительность: 01:06:51
Трэклист:
1. От нощи утреннюет дух мой… Аллилуиа
2. Зависть примет люди ненаказанные… Аллилуиа
3. Се Жених грядет в полунощи… медленно (древний напев)
4. Се Жених грядет в полунощи… кратко
5. Страдания честная настоящий день…
6. Невидимый судие…
7. Страстей Господних начатки…
8. Песнь 1-ая канона по катавасии
9. Кондак, икос, синаксарий
10. Песнь 8-ая канона по катавасии
11. Песнь 9-ая канона по катавасии
12. Чертог Твой вижду…
13. Всякое дыхание… Хвалите…
14. Грядый Господь…
15. Достигшее верни…
16. Господи, грядый к страданию…
17. Господи, к таинству неизглаголанному…
18. Изсохшия смоковницы за неплодие…
19. Вторую Еву египтяныню…
Дополнительная информация: Поёт братский хор монастыря Ватопед.
Содержание+Обложки
picpic
EAC log
Exact Audio Copy V0.99 prebeta 5 from 4. May 2009

Отчёт EAC об извлечении, выполненном 10. октября 2009, 11:42

Хор монастыря Ватопед / Великий Понедельник

Дисковод: ASUS BC-1205PT Adapter: 1 ID: 0

Режим чтения : Достоверность
Использование точного потока : Да
Отключение кэша аудио : Да
Использование указателей C2 : Нет

Коррекция смещения при чтении : 667
Способность читать области Lead-in и Lead-out : Нет
Заполнение пропущенных сэмплов тишиной : Да
Удаление блоков с тишиной в начале и конце : Нет
При вычислениях CRC использовались нулевые сэмплы : Да
Интерфейс : Встроенный Win32-интерфейс для Win NT/2000

Выходной формат : Внутренние WAV-операции
Формат сэмплов : 44.100 Гц; 16 бит; стерео

TOC извлечённого CD

Трек | Старт | Длительность | Начальный сектор | Конечный сектор
---------------------------------------------------------------------
1 | 0:00.00 | 4:15.35 | 0 | 19159
2 | 4:15.35 | 0:58.34 | 19160 | 23543
3 | 5:13.69 | 6:13.16 | 23544 | 51534
4 | 11:27.10 | 2:09.40 | 51535 | 61249
5 | 13:36.50 | 2:28.45 | 61250 | 72394
6 | 16:05.20 | 2:26.67 | 72395 | 83411
7 | 18:32.12 | 4:50.25 | 83412 | 105186
8 | 23:22.37 | 3:42.13 | 105187 | 121849
9 | 27:04.50 | 2:15.40 | 121850 | 132014
10 | 29:20.15 | 5:14.45 | 132015 | 155609
11 | 34:34.60 | 4:07.20 | 155610 | 174154
12 | 38:42.05 | 3:40.40 | 174155 | 190694
13 | 42:22.45 | 4:27.37 | 190695 | 210756
14 | 46:50.07 | 3:18.27 | 210757 | 225633
15 | 50:08.34 | 1:38.16 | 225634 | 232999
16 | 51:46.50 | 5:05.35 | 233000 | 255909
17 | 56:52.10 | 4:39.47 | 255910 | 276881
18 | 61:31.57 | 1:40.13 | 276882 | 284394
19 | 63:11.70 | 3:38.02 | 284395 | 300746

Характеристики диапазона извлечения и сообщения об ошибках

Выбранный диапазон

Имя файла C:\Хор монастыря Ватопед - Великий Понедельник.wav

Пиковый уровень 97.7 %
Качество диапазона 100.0 %
CRC копии 7304F887
Копирование... OK

Ошибок не произошло
Конец отчёта
Download

Войдите для скачивания торрент-файла

Как скачивать  ·   Правила трекера

[Профиль]  [ЛС] 
Показать сообщения:    
Ответить на тему

Текущее время: 26-Май 04:05

Часовой пояс: GMT + 4



Вы не можете начинать темы
Вы не можете отвечать на сообщения
Вы не можете редактировать свои сообщения
Вы не можете удалять свои сообщения
Вы не можете голосовать в опросах
Вы не можете прикреплять файлы к сообщениям
Вы не можете скачивать файлы