Loading...
Error

(Церковная музыка и церковные хоры (lossless)) "Канон Молебный с Акафистом Преподобным Отцам Киево-Печерским" (2CD) - 2006, AРЕ (image + .cue), lossless

Ответить на тему
Статистика раздачи
   
 
Автор Сообщение

СЕРГУЛЕТ

Стаж: 12 лет

Сообщений: 2637

Откуда: LA ROMANA

Dominicanrep

post 07-Окт-2009 18:18

[Цитировать] 

"Канон Молебный с Акафистом Преподобным Отцам Киево-Печерским" (2CD)
pic
Страна: Россия. Продюсерский центр Игоря Матвиенко
Жанр: Церковная музыка и церковные хоры (lossless)
Год выпуска: 2006
Формат: AРЕ (image + .cue)
Битрейт аудио: lossless
Продолжительность: 01:06:54/00:23:48
Трэклист:
CD1
01. «Царю Небесный…»
02. Тропарь преподобным отцам Печерским «Бог Господь…»
03. Канон преподобным отцам Печерским Песнь 1 «Воду прошед яко сушу…»
04. Песнь 3 «Небеснаго круга…»
05. Песнь 4 «Услышах, Господи, смотрения Твоего таинство…»
06. Песнь 5 «Просвети нас повелении Твоими, Господи…»
07. Песнь 6 «Молитву пролию ко Господу…»
08. «Молите Бога о нас, преподобные и богоносные отцы наши Антоние и Феодосие …»
09. Малая ектения
10. Кондак «Богоизбранный полче…»
11-25. Акафист преподобным отцам Печерским


CD2
01. Прокимен, глас 4: «Честна пред Господем…»
02. «Всякое дыхание…»
03. Чтение Евангелия
04. Молитвословие после Евангелия
05. Стихира «Преподобные отцы…»
06. Канон. Песнь 7 «От Иудеи дошедше отроцы…»
07. Песнь 8 «Царя Небеснаго…»
08. Песнь 9 «Воистину Богородицу…»
09. Сугубая ектения
10. Молитва преподобным отцам Печерским
11. Отпуст
12. Величание преподобным отцам Печерским
Братский хор Свято-Успенской Киево-Печерской Лавры.
Регент иеродиакон Геронтий (Борисевич).

Запись произведена в храме преподобных Антония и Феодосия Печерских Свято-Успенской Киево-Печерской Лавры
Богослужение совершают:
Митрополит Киевский и всея Украины Владимир, Священноархимандрит Свято-УспенскоЙ Киево-Печерской Лавры Архиепископ Вышгородский Павел,
наместник Свято-Успенской Киево-Печерской Лавры Архиепископ Переяслав-Хмельницкий Митрофан.
Братия Свято-Успенской Киево-Печерской Лавры

EAC log
Exact Audio Copy V0.99 prebeta 5 from 4. May 2009

Отчёт EAC об извлечении, выполненном 7. октября 2009, 18:01

Хор Киево-Печерской Лавры / Канон молебный с Акафистом Отцам-1

Дисковод: ASUS BC-1205PT Adapter: 1 ID: 0

Режим чтения : Достоверность
Использование точного потока : Да
Отключение кэша аудио : Да
Использование указателей C2 : Нет

Коррекция смещения при чтении : 667
Способность читать области Lead-in и Lead-out : Нет
Заполнение пропущенных сэмплов тишиной : Да
Удаление блоков с тишиной в начале и конце : Нет
При вычислениях CRC использовались нулевые сэмплы : Да
Интерфейс : Встроенный Win32-интерфейс для Win NT/2000

Выходной формат : Внутренние WAV-операции
Формат сэмплов : 44.100 Гц; 16 бит; стерео

TOC извлечённого CD

Трек | Старт | Длительность | Начальный сектор | Конечный сектор
---------------------------------------------------------------------
1 | 0:00.00 | 1:29.64 | 0 | 6738
2 | 1:29.64 | 1:56.21 | 6739 | 15459
3 | 3:26.10 | 2:06.20 | 15460 | 24929
4 | 5:32.30 | 2:42.71 | 24930 | 37150
5 | 8:15.26 | 2:03.27 | 37151 | 46402
6 | 10:18.53 | 1:51.14 | 46403 | 54741
7 | 12:09.67 | 2:32.51 | 54742 | 66192
8 | 14:42.43 | 0:33.49 | 66193 | 68716
9 | 15:16.17 | 1:07.55 | 68717 | 73796
10 | 16:23.72 | 3:19.22 | 73797 | 88743
11 | 19:43.19 | 2:06.74 | 88744 | 98267
12 | 21:50.18 | 3:13.15 | 98268 | 112757
13 | 25:03.33 | 3:32.70 | 112758 | 128727
14 | 28:36.28 | 3:28.51 | 128728 | 144378
15 | 32:05.04 | 3:01.53 | 144379 | 158006
16 | 35:06.57 | 3:41.22 | 158007 | 174603
17 | 38:48.04 | 2:54.62 | 174604 | 187715
18 | 41:42.66 | 3:29.50 | 187716 | 203440
19 | 45:12.41 | 3:14.71 | 203441 | 218061
20 | 48:27.37 | 3:30.56 | 218062 | 233867
21 | 51:58.18 | 3:42.01 | 233868 | 250518
22 | 55:40.19 | 3:39.53 | 250519 | 266996
23 | 59:19.72 | 3:38.41 | 266997 | 283387
24 | 62:58.38 | 2:07.52 | 283388 | 292964
25 | 65:06.15 | 1:45.68 | 292965 | 300907

Характеристики диапазона извлечения и сообщения об ошибках

Выбранный диапазон

Имя файла C:\Хор Киево-Печерской Лавры - Канон молебный с Акафистом Отцам-1.wav

Пиковый уровень 100.0 %
Качество диапазона 100.0 %
CRC копии F201DD15
Копирование... OK

Ошибок не произошло

CD2.
Exact Audio Copy V0.99 prebeta 5 from 4. May 2009

Отчёт EAC об извлечении, выполненном 7. октября 2009, 18:09

Хор Киево-Печерской Лавры / Канон Молебный с Акафистом Отцам-2

Дисковод: ASUS BC-1205PT Adapter: 1 ID: 0

Режим чтения : Достоверность
Использование точного потока : Да
Отключение кэша аудио : Да
Использование указателей C2 : Нет

Коррекция смещения при чтении : 667
Способность читать области Lead-in и Lead-out : Нет
Заполнение пропущенных сэмплов тишиной : Да
Удаление блоков с тишиной в начале и конце : Нет
При вычислениях CRC использовались нулевые сэмплы : Да
Интерфейс : Встроенный Win32-интерфейс для Win NT/2000

Выходной формат : Внутренние WAV-операции
Формат сэмплов : 44.100 Гц; 16 бит; стерео

TOC извлечённого CD

Трек | Старт | Длительность | Начальный сектор | Конечный сектор
---------------------------------------------------------------------
1 | 0:00.00 | 1:37.38 | 0 | 7312
2 | 1:37.38 | 1:59.53 | 7313 | 16290
3 | 3:37.16 | 2:09.07 | 16291 | 25972
4 | 5:46.23 | 1:07.38 | 25973 | 31035
5 | 6:53.61 | 1:15.53 | 31036 | 36713
6 | 8:09.39 | 2:11.74 | 36714 | 46612
7 | 10:21.38 | 1:58.65 | 46613 | 55527
8 | 12:20.28 | 3:03.21 | 55528 | 69273
9 | 15:23.49 | 3:04.66 | 69274 | 83139
10 | 18:28.40 | 2:08.01 | 83140 | 92740
11 | 20:36.41 | 1:53.01 | 92741 | 101216
12 | 22:29.42 | 1:16.72 | 101217 | 106988

Характеристики диапазона извлечения и сообщения об ошибках

Выбранный диапазон

Имя файла C:\Хор Киево-Печерской Лавры - Канон Молебный с Акафистом Отцам-2.wav

Пиковый уровень 98.7 %
Качество диапазона 100.0 %
CRC копии DE6D88EB
Копирование... OK

Ошибок не произошло
Конец отчёта

Дополнительная информация
Киево-Печерская Лавра, возникшая из пещеры в лесной глуши, не стремилась к почестям и признанию суетного мира. Наоборот, она искала безмолвия и безвестности, уйдя под землю, избрав самый суровый вид подвижнической жизни — пещерничество. Невостребованность ее духовности была столь велика, что всепобеждающий светдуховного подвига Киево-Печерских отцов вырвался из земных недр и залил полноводными струями окрестные земли, принеся обители славу на Святой Руси."Святая обитель за долгий исторический путь познала много скорбей, но молитвами чудотворцев Печерских победила все невзгоды… Сегодня, задумываясь над судьбами мира и Отечества, необходимо черпать силы из источника лаврской духовности, учиться жизни и спасению у святых угодников Печерских, взывать к ним о помощи и вразумлении. Благодать этого источника не иссякнет вовеки, как не иссякнет благоволение Богородицы к Своему благодатному уделу на земле — святой обители Киево-Печерской…", -такие слова посвятил 950-летнему юбилею Лавры митрополит Киевский и всея Украины Владимир, Предстоятель Украинской Православной Церкви и Священноархимандрит Свято-Успенской Киево-Печерской Лавры.

Download

Войдите на сайт, чтобы увидеть полную информацию.

Как скачивать  ·   Правила трекера



Последний раз редактировалось: СЕРГУЛЕТ (2009-10-07 18:57), всего редактировалось 3 раз(а)
[Профиль]  [ЛС] 

Manul

Стаж: 11 лет

Сообщений: 155

Ussr

post 07-Окт-2009 18:24 (спустя 6 минут)

[Цитировать] 

А коврик? Crying or Very sad
У меня из-под носа ушла эта коробка Sad
[Профиль]  [ЛС] 
Показать сообщения:    
Ответить на тему

Текущее время: 27-Фев 16:09

Часовой пояс: GMT + 4



Вы не можете начинать темы
Вы не можете отвечать на сообщения
Вы не можете редактировать свои сообщения
Вы не можете удалять свои сообщения
Вы не можете голосовать в опросах
Вы не можете прикреплять файлы к сообщениям
Вы не можете скачивать файлы