Loading...
Error

(Церковная музыка и церковные хоры (lossless)) "Акафист Преподобному Серафиму Саровскому". Хор Певчих Московских Храмов. Регент Анатолий Кулешов. - 2003, APE (image + .cue), lossless

Ответить на тему
Статистика раздачи
Скачали: [ 10 ]
   
 
Автор Сообщение

СЕРГУЛЕТ

Стаж: 8 лет

Сообщений: 2639

Откуда: LA ROMANA

Dominicanrep

post 06-Окт-2009 23:21

[Цитировать] 

"Акафист Преподобному Серафиму Саровскому". Хор Певчих Московских Храмов. Регент Анатолий Кулешов.

pic
Страна: Россия. Продюсерский центр Игоря Матвиенко.
Жанр: Церковная музыка и церковные хоры (lossless)
Год выпуска: 2003
Формат: APE (image + .cue)
Битрейт аудио: lossless
Продолжительность: 01:06:52
Трэклист:
1. Благословен Бог наш… Царю Небесный… (музыка П.Чеснокова)
2. Бог Господь… Тропарь От юности Христа возлюбил еси… (глас 4; музыка П.Чеснокова)
3. Запевы
4. Сугубая ектения «Московская»
5. Акафист
Кондак 1, глас 8 (музыка П.Чеснокова)
Икос 1 — кондак 13 (напев Саровской пустыни)
Кондак 13, глас 8 (музыка П.Чеснокова)
Икос 1, кондак 1 (напев Саровской пустыни)
6. Прокимен глас 4 (музыка архимандрита Матфея (Мормыля))
Опевы Евангелия
7. Чтение Евангелия
8. Малое славление
Стихира Днесь сошедшееся… (глас 4; Киевский распев)
Подобен: Дал еси знамение…
9. Запевы
10. Достойно есть Царя Феодора (музыка Н.Крылова)
11. Кондак Мира красоту… (глас 2; напев Зосимовой пустыни)
12. Сугубая ектения (музыка П.Чеснокова)
13. Молитва прп. Серафиму Саровскому
14. Величание прп. Серафиму Саровскому (знаменный распев; музыка В.Касторского)
15. Отпуст
Дополнительная информация: В русской гимнографии акафист Серафиму Саровскому считается одной из вершин духовной поэзии. Неизмерима была жертвенная любовь к Богу и к ближним этого великого подвижника, чудотворца и молитвенника Земли Русской. До сих пор все православные прибегают к благодатной помощи преподобного Серафима и твердо верят в его молитвенное предстательство пред Престолом Божиим.

Акафист святому звучит в строгом, аскетическом исполнении иереев Сергия (Куликова) и Алексия (Годунова) в сопровождении Хора певчих Московских храмов под управлением Анатолия Кулешова. С напевами Саровской и Зосимовой пустыни чудесно гармонируют знаменный распев и авторские произведения («Царю небесный» П.Чеснокова, прокимен архм. Матфея (Мормыля).
Содержание+Обложки
picpic
EAC log
Exact Audio Copy V0.99 prebeta 5 from 4. May 2009

Отчёт EAC об извлечении, выполненном 6. октября 2009, 16:19

Хор Московских храмов / Акафист Преподобному Серафиму Саровскому.

Дисковод: ASUS BC-1205PT Adapter: 1 ID: 0

Режим чтения : Достоверность
Использование точного потока : Да
Отключение кэша аудио : Да
Использование указателей C2 : Нет

Коррекция смещения при чтении : 667
Способность читать области Lead-in и Lead-out : Нет
Заполнение пропущенных сэмплов тишиной : Да
Удаление блоков с тишиной в начале и конце : Нет
При вычислениях CRC использовались нулевые сэмплы : Да
Интерфейс : Встроенный Win32-интерфейс для Win NT/2000

Выходной формат : Внутренние WAV-операции
Формат сэмплов : 44.100 Гц; 16 бит; стерео

TOC извлечённого CD

Трек | Старт | Длительность | Начальный сектор | Конечный сектор
---------------------------------------------------------------------
1 | 0:00.00 | 1:28.28 | 0 | 6627
2 | 1:28.28 | 3:29.36 | 6628 | 22338
3 | 4:57.64 | 1:21.43 | 22339 | 28456
4 | 6:19.32 | 1:49.51 | 28457 | 36682
5 | 8:09.08 | 38:47.00 | 36683 | 211207
6 | 46:56.08 | 2:45.16 | 211208 | 223598
7 | 49:41.24 | 2:10.59 | 223599 | 233407
8 | 51:52.08 | 2:59.53 | 233408 | 246885
9 | 54:51.61 | 1:16.66 | 246886 | 252651
10 | 56:08.52 | 1:49.10 | 252652 | 260836
11 | 57:57.62 | 1:14.57 | 260837 | 266443
12 | 59:12.44 | 2:17.66 | 266444 | 276784
13 | 61:30.35 | 2:25.48 | 276785 | 287707
14 | 63:56.08 | 1:29.03 | 287708 | 294385
15 | 65:25.11 | 1:25.49 | 294386 | 300809

Характеристики диапазона извлечения и сообщения об ошибках

Выбранный диапазон

Имя файла C:\Хор Московских храмов - Акафист Преподобному Серафиму Саровскому..wav

Пиковый уровень 100.0 %
Качество диапазона 99.9 %
CRC копии 3DA82E67
Копирование... OK

Ошибок не произошло
Конец отчёта
Download

Войдите для скачивания торрент-файла

Как скачивать  ·   Правила трекера

[Профиль]  [ЛС] 

Damian

Стаж: 7 лет 2 месяца

Сообщений: 1839

Откуда: Донбасс

Russia

post 31-Май-2012 09:26 (спустя 2 года 7 месяцев)

[Цитировать] 

Что значит Продюсерский центр Игоря Матвиенко....
Очень красиво!!!!

_________________
Помолимся!
[Профиль]  [ЛС] 
Показать сообщения:    
Ответить на тему

Текущее время: 24-Фев 18:52

Часовой пояс: GMT + 4



Вы не можете начинать темы
Вы не можете отвечать на сообщения
Вы не можете редактировать свои сообщения
Вы не можете удалять свои сообщения
Вы не можете голосовать в опросах
Вы не можете прикреплять файлы к сообщениям
Вы не можете скачивать файлы