Loading...
Error

(Церковная музыка и церковные хоры (lossless)) "Пасхальная Литургия" Хор под управлением Петра Спасского. Париж - 2007, AРЕ (image + .cue), lossless

Ответить на тему
Статистика раздачи
   
 
Автор Сообщение

СЕРГУЛЕТ

Стаж: 12 лет

Сообщений: 2637

Откуда: LA ROMANA

Dominicanrep

post 05-Окт-2009 15:36

[Цитировать] 

"Пасхальная Литургия" Хор под управлением Петра Спасского. Париж
pic
Страна: Россия. "MAXclassic & Company"
Жанр: Церковная музыка и церковные хоры (lossless)
Год выпуска: 2007
Формат: AРЕ (image + .cue)
Битрейт аудио: lossless
Продолжительность: 00:43:02
Наличие сканов: да
Трэклист:
01. Пасхальное начало; Часы Святой Пасхи - 8:38
02. Возглас и Пасхальное начало Божественной литургии - 2:19
03. Антифоны Пасхи; "Единородный Сыне..." - 3:16
04. "Приидите поклонимся..." - 0:45
05. "Ис полла эти, Деспота" - 1:17
06. "Христос воскресе из мертвых..." тропарь Пасхи - 0:35
07. "Аще и во гроб снизшел еси..." Кондак Пасхи - 0:49
08. "Елицы во Христа крестистеся..." - 1:24
09. "Сей день его же сотвори Господь..." Прокимен - 1:41
10. "Херувимская песнь" - 4:46
11. "Милость мира" - 6:42
12. "Ангел вопияше..." Задостойник Пасхи - 2:15
13. Ектенья "Все святые поминувше" - 1:57
14. "Отче наш" - 2:38
15. "Да воскреснет Бог..." Концерт - 3:52

EAC log
Exact Audio Copy V0.99 prebeta 5 from 4. May 2009

Отчёт EAC об извлечении, выполненном 5. октября 2009, 8:09

Хор Петра Спасского / Пасхальная Литургия

Дисковод: ASUS BC-1205PT Adapter: 1 ID: 0

Режим чтения : Достоверность
Использование точного потока : Да
Отключение кэша аудио : Да
Использование указателей C2 : Нет

Коррекция смещения при чтении : 667
Способность читать области Lead-in и Lead-out : Нет
Заполнение пропущенных сэмплов тишиной : Да
Удаление блоков с тишиной в начале и конце : Нет
При вычислениях CRC использовались нулевые сэмплы : Да
Интерфейс : Встроенный Win32-интерфейс для Win NT/2000

Выходной формат : Внутренние WAV-операции
Формат сэмплов : 44.100 Гц; 16 бит; стерео

TOC извлечённого CD

Трек | Старт | Длительность | Начальный сектор | Конечный сектор
---------------------------------------------------------------------
1 | 0:00.00 | 8:38.42 | 0 | 38891
2 | 8:38.42 | 2:19.50 | 38892 | 49366
3 | 10:58.17 | 3:16.73 | 49367 | 64139
4 | 14:15.15 | 0:45.22 | 64140 | 67536
5 | 15:00.37 | 1:17.30 | 67537 | 73341
6 | 16:17.67 | 0:35.43 | 73342 | 76009
7 | 16:53.35 | 0:49.55 | 76010 | 79739
8 | 17:43.15 | 1:24.17 | 79740 | 86056
9 | 19:07.32 | 1:41.38 | 86057 | 93669
10 | 20:48.70 | 4:46.32 | 93670 | 115151
11 | 25:35.27 | 6:42.64 | 115152 | 145365
12 | 32:18.16 | 2:15.30 | 145366 | 155520
13 | 34:33.46 | 1:57.50 | 155521 | 164345
14 | 36:31.21 | 2:38.10 | 164346 | 176205
15 | 39:09.31 | 3:52.23 | 176206 | 193628

Характеристики диапазона извлечения и сообщения об ошибках

Выбранный диапазон

Имя файла C:\Хор Петра Спасского - Пасхальная Литургия.wav

Пиковый уровень 94.0 %
Качество диапазона 100.0 %
CRC копии 05C4A243
Копирование... OK

Ошибок не произошло
Конец отчёта

Обложки и содержание
pic pic pic pic

Download

Войдите на сайт, чтобы увидеть полную информацию.

Как скачивать  ·   Правила трекера

[Профиль]  [ЛС] 
Показать сообщения:    
Ответить на тему

Текущее время: 26-Фев 22:17

Часовой пояс: GMT + 4



Вы не можете начинать темы
Вы не можете отвечать на сообщения
Вы не можете редактировать свои сообщения
Вы не можете удалять свои сообщения
Вы не можете голосовать в опросах
Вы не можете прикреплять файлы к сообщениям
Вы не можете скачивать файлы